• Новинки трекера
     Кодекс киллера / The Protégé / The Protege (2021) WEB-DLRip от ELEKTRI4KA | iTunes
    ФорумФильмы
    24 окт 2021, 13:51, K15


    «Месть ей к лицу»
    Информация о фильме
    Название: Кодекс киллера
    Оригинальное название: The Protégé / The Protege
    Год выхода: 2021
    Жанр: Боевик, триллер, криминал
    Режиссер: Мартин Кэмпбелл
    В ролях: Сэмюэл Л. Джексон, Майкл Китон, Мэгги Кью, Дэвид Ринтул, Патрик Мэлахайд, Рэй Фиарон, Ори Феффер, Роберт Патрик, Флорин Пьерсик мл., Тудор Кирилэ

    О фильме: С самого детства она знает, как убивать и со временем именно это становится ее ремеслом. В своем деле Анна — профессионал, так как обучалась у лучшего из наемников. После смерти наставника ассасины выходят на тропу войны, но и девушка, обученная различным видам единоборства, готова принять вызов. В ее арсенале не только оружие и ножи, но еще и искусство соблазнителя. Теперь Анне придется стать оружием мщения, а также узнать правду о своем истинном происхождении.



    Выпущено: США, Великобритания / Arthur Sarkissian Productions, Campbell Grobman Films, Fourteen Films
    Продолжительность: 01:44:11
    Озвучивание: Дублированное | iTunes

    Файл
    Формат: AVI
    Качество: WEB-DLRip | AMAZON Version
    Видео: XviD, 1616 Kb/s, 720x304
    Аудио: Russian: 48 kHz, AC3 Dolby Digital, 3/2 (L, C, R, l, r) + LFE ch, ~384 Kbps | DUB | iTunes
    Субтитры: Russian (Full) - отдельно
    Релиз группы:
    Комментариев: 0
    Просмотров: 222


    Торрент Скачать Сидеров Личеров Размер
    Торрент [rutracker.in] torrent_837771.torrent Скачать Сидеров92 Личеров0 Размер1.46 ГБ


     Хэллоуин убивает / Halloween Kills (2021) WEB-DLRip-AVC | HDRezka Studio
    ФорумФильмы
    24 окт 2021, 13:49, K15


    Информация о фильме
    Название: Хэллоуин убивает
    Оригинальное название: Halloween Kills
    Год выхода: 2021
    Жанр: ужасы, триллер, криминал
    Режиссеры: Дэвид Гордон Грин / David Gordon Green
    В ролях: Джейми Ли Кёртис, Джуди Грир, Энди Мэтичак, Энтони Майкл Холл, Джеймс Джуд Кортни, Ник Касл, Эйрон Армстронг, Уилл Пэттон, Томас Манн, Джим Каммингс

    О фильме: Лори Строуд, ее дочь Карен и внучка Эллисон поймали Майкла Майерса в ловушку и оставили гореть в подвале их дома. Раненая Лори отправляется в больницу, уверенная в том, что ее преследователь наконец-то мертв. Но Майклу удается освободиться, и его кровавая расправа продолжается. Лори должна справиться с болью и снова защищаться, однако, в этот раз весь город готов дать отпор неудержимому монстру. Женщины семьи Строуд присоединяются к группе выживших, которые хотят взять правосудие в свои руки, выследить Майкла и остановить его раз и навсегда. Зло должно умереть сегодня.



    Страна: Великобритания, США
    Продолжительность: 01:45:12
    Перевод: Профессиональный многоголосый (HDRezka Studio)
    Субтитры: Русские (forced, full (MENINSUB)), английские
    ► Без Рекламы!

    Файл
    Формат: Matroska
    Качество: WEB-DLRip-AVC
    Видео: 860x360 at 23.976 fps, x264@L4.1, ~1588 kbps
    Аудио: AC3, 6 ch, ~384 kbps - | Русский | (Censored)
    Формат субтитров: softsub (SRT)
    ***Релиз от: -=DoMiNo=-
    x264 [info]: frame I:1358 Avg QP:14.40 size: 48123
    x264 [info]: frame P:34626 Avg QP:16.73 size: 16393
    x264 [info]: frame B:115374 Avg QP:18.85 size: 5363

    General
    Unique ID : 217014956892323766146489291766723680337 (0xA3438F757301449C052922B817DE9851)
    Complete name : I:Halloween.Kills.2021.WEB-DLRip-AVC.mkv
    Format : Matroska
    Format version : Version 4
    File size : 1.45 GiB
    Duration : 1 h 45 min
    Overall bit rate : 1 972 kb/s
    Encoded date : UTC 2021-10-21 21:19:59
    Writing application : mkvmerge v62.0.0 ('Apollo') 64-bit
    Writing library : libebml v1.4.2 + libmatroska v1.6.4
    Cover : Yes
    Attachments : Cover.jpg / cover 2.jpg

    Video
    ID : 1
    Format : AVC
    Format/Info : Advanced Video Codec
    Format profile : High@L4.1
    Format settings : CABAC / 12 Ref Frames
    Format settings, CABAC : Yes
    Format settings, Reference : 12 frames
    Codec ID : V_MPEG4/ISO/AVC
    Duration : 1 h 45 min
    Bit rate : 1 588 kb/s
    Width : 860 pixels
    Height : 360 pixels
    Display aspect ratio : 2.40:1
    Frame rate mode : Constant
    Frame rate : 23.976 (24000/1001) FPS
    Color space : YUV
    Chroma subsampling : 4:2:0
    Bit depth : 8 bits
    Scan type : Progressive
    Bits/(Pixel*Frame) : 0.214
    Stream size : 1.17 GiB (80%)
    Title : -=DoMiNo=-
    Writing library : x264 core 164 r3075+55M 97d28bb t_mod_New [(8 & 10)-bit@all X86_64]
    Encoding settings : cabac=1 / ref=12 / deblock=1:-3:-3 / analyse=0x3:0x133 / me=umh / subme=10 / psy=1 / fade_compensate=0.00 / psy_rd=1.00:0.15 / mixed_ref=1 / me_range=32 / chroma_me=1 / trellis=2 / 8x8dct=1 / cqm=0 / deadzone=21,11 / fast_pskip=0 / chroma_qp_offset=-3 / threads=24 / lookahead_threads=2 / sliced_threads=0 / nr=0 / decimate=0 / interlaced=0 / bluray_compat=0 / constrained_intra=0 / fgo=0 / bframes=10 / b_pyramid=2 / b_adapt=2 / b_bias=0 / direct=3 / weightb=1 / open_gop=0 / weightp=2 / keyint=240 / keyint_min=23 / scenecut=40 / intra_refresh=0 / rc_lookahead=60 / rc=2pass / mbtree=0 / bitrate=1588 / ratetol=1.0 / qcomp=0.60 / qpmin=0:0:0 / qpmax=69:69:69 / qpstep=4 / cplxblur=20.0 / qblur=0.5 / vbv_maxrate=50000 / vbv_bufsize=62500 / nal_hrd=none / filler=0 / ip_ratio=1.40 / pb_ratio=1.30 / aq=2:0.80 / aq-sensitivity=10.00 / aq-factor=1.00:1.00:1.00 / aq2=0 / aq3=0
    Language : English
    Default : Yes
    Forced : No

    Audio
    ID : 2
    Format : AC-3
    Format/Info : Audio Coding 3
    Commercial name : Dolby Digital
    Codec ID : A_AC3
    Duration : 1 h 45 min
    Bit rate mode : Constant
    Bit rate : 384 kb/s
    Channel(s) : 6 channels
    Channel layout : L R C LFE Ls Rs
    Sampling rate : 48.0 kHz
    Frame rate : 31.250 FPS (1536 SPF)
    Compression mode : Lossy
    Stream size : 289 MiB (19%)
    Title : MVO_[HDR]
    Language : Russian
    Service kind : Complete Main
    Default : Yes
    Forced : No

    Text #1
    ID : 3
    Format : UTF-8
    Codec ID : S_TEXT/UTF8
    Codec ID/Info : UTF-8 Plain Text
    Duration : 50 min 37 s
    Bit rate : 0 b/s
    Count of elements : 7
    Stream size : 367 Bytes (0%)
    Title : Forced
    Language : Russian
    Default : Yes
    Forced : No

    Text #2
    ID : 4
    Format : UTF-8
    Codec ID : S_TEXT/UTF8
    Codec ID/Info : UTF-8 Plain Text
    Duration : 1 h 38 min
    Bit rate : 83 b/s
    Count of elements : 1451
    Stream size : 59.9 KiB (0%)
    Language : Russian
    Default : No
    Forced : No

    Text #3
    ID : 5
    Format : UTF-8
    Codec ID : S_TEXT/UTF8
    Codec ID/Info : UTF-8 Plain Text
    Duration : 1 h 45 min
    Bit rate : 65 b/s
    Count of elements : 1874
    Stream size : 50.2 KiB (0%)
    Language : English
    Default : No
    Forced : No
    Комментариев: 0
    Просмотров: 200


    Торрент Скачать Сидеров Личеров Размер
    Торрент [rutracker.in] torrent_840191.torrent Скачать Сидеров4 Личеров0 Размер1.45 ГБ


     Кукловод / He's Out There (2018) BDRemux 1080p | iTunes
    ФорумФильмы
    24 окт 2021, 13:47, K15


    Информация о фильме
    Название: Кукловод
    Оригинальное название: He's Out There
    Год выхода: 2018
    Жанр: Ужасы, триллер
    Режиссер: Куинн Лашер
    В ролях: Ивонн Страховски, Джастин Бруенинг, Анна Пнёвски, Эбигейл Пнёвски, Стефани Коста, Джулиан Бэйли

    О фильме: Мать отправляется в уединенный домик, расположенный на берегу озера, чтобы отдохнуть вместе с двумя юными дочерьми. Они давно планировали этот отпуск и наконец-то могут себе его позволить. Они прибывают в восхитительное место, даже не подозревая, что этот рай совсем скоро станет для них самым настоящим адом. Все дело в том, что они являются участниками некой игры, которую придумал самый настоящий психопат. Несколько лет он находился в тени, когда семья проводила вместе отпуск. Он даже оставлял для них детскую книжку с картинками, подготавливая таким образом к жуткому сценарию, который сам же подготовил. Сможет ли кто-нибудь остановить его и предотвратить кровавую бойню?..



    Выпущено: США / Screen Gems, Unbroken Pictures
    Продолжительность: 01:29:30
    Перевод: Дублированный, многоголосый профессиональный
    Субтитры: Английские, немецкие, испанские

    Файл
    Формат: MKV
    Качество: BDRemux 1080p
    Видео: AVC/H.264, 1920x1080, ~22.0 Mbps
    Аудио 1: AC3, 6 ch, 384 Kbps - Русский (Dub, iTunes)
    Аудио 2: AC3, 6 ch, 448 Kbps - Русский (MVO, HDRezka Studio)
    Аудио 3: AC3, 6 ch, 448 Kbps - Украинский (MVO, AAASound)
    Аудио 4: DTS-HD MA, 6 ch, 2020 Kbps - Английский
    Релиз от: mike7025
    General
    Unique ID : 232608945023151235509712388264673080402 (0xAEFEDA6EEF7BC6F521E9B2CA6FB2F452)
    Complete name : S:Hes.Out.There.2018.REMUX.mkv
    Format : Matroska
    Format version : Version 4
    File size : 15.8 GiB
    Duration : 1 h 29 min
    Overall bit rate mode : Variable
    Overall bit rate : 25.3 Mb/s
    Encoded date : UTC 2021-10-23 03:07:53
    Writing application : mkvmerge v20.0.0 ('I Am The Sun') 64-bit
    Writing library : libebml v1.3.5 + libmatroska v1.4.8

    Video
    ID : 1
    Format : AVC
    Format/Info : Advanced Video Codec
    Format profile : High@L4.1
    Format settings : CABAC / 3 Ref Frames
    Format settings, CABAC : Yes
    Format settings, Reference frames : 3 frames
    Codec ID : V_MPEG4/ISO/AVC
    Duration : 1 h 29 min
    Bit rate mode : Variable
    Bit rate : 22.0 Mb/s
    Maximum bit rate : 37.0 Mb/s
    Width : 1 920 pixels
    Height : 1 080 pixels
    Display aspect ratio : 16:9
    Frame rate mode : Constant
    Frame rate : 23.976 (24000/1001) FPS
    Color space : YUV
    Chroma subsampling : 4:2:0
    Bit depth : 8 bits
    Scan type : Progressive
    Bits/(Pixel*Frame) : 0.442
    Stream size : 13.7 GiB (87%)
    Language : English
    Default : Yes
    Forced : No

    Audio #1
    ID : 2
    Format : AC-3
    Format/Info : Audio Coding 3
    Commercial name : Dolby Digital
    Codec ID : A_AC3
    Duration : 1 h 29 min
    Bit rate mode : Constant
    Bit rate : 384 kb/s
    Channel(s) : 6 channels
    Channel layout : L R C LFE Ls Rs
    Sampling rate : 48.0 kHz
    Frame rate : 31.250 FPS (1536 SPF)
    Compression mode : Lossy
    Stream size : 245 MiB (2%)
    Title : Dub iTunes
    Language : Russian
    Service kind : Complete Main
    Default : Yes
    Forced : No

    Audio #2
    ID : 3
    Format : AC-3
    Format/Info : Audio Coding 3
    Commercial name : Dolby Digital
    Codec ID : A_AC3
    Duration : 1 h 29 min
    Bit rate mode : Constant
    Bit rate : 448 kb/s
    Channel(s) : 6 channels
    Channel layout : L R C LFE Ls Rs
    Sampling rate : 48.0 kHz
    Frame rate : 31.250 FPS (1536 SPF)
    Compression mode : Lossy
    Stream size : 287 MiB (2%)
    Title : MVO HDRezka Studio
    Language : Russian
    Service kind : Complete Main
    Default : No
    Forced : No

    Audio #3
    ID : 4
    Format : AC-3
    Format/Info : Audio Coding 3
    Commercial name : Dolby Digital
    Codec ID : A_AC3
    Duration : 1 h 29 min
    Bit rate mode : Constant
    Bit rate : 448 kb/s
    Channel(s) : 6 channels
    Channel layout : L R C LFE Ls Rs
    Sampling rate : 48.0 kHz
    Frame rate : 31.250 FPS (1536 SPF)
    Compression mode : Lossy
    Stream size : 287 MiB (2%)
    Title : MVO AAASound
    Language : Ukrainian
    Service kind : Complete Main
    Default : No
    Forced : No

    Audio #4
    ID : 5
    Format : DTS XLL
    Format/Info : Digital Theater Systems
    Commercial name : DTS-HD Master Audio
    Codec ID : A_DTS
    Duration : 1 h 29 min
    Bit rate mode : Variable
    Bit rate : 2 020 kb/s
    Channel(s) : 6 channels
    Channel layout : C L R Ls Rs LFE
    Sampling rate : 48.0 kHz
    Frame rate : 93.750 FPS (512 SPF)
    Bit depth : 16 bits
    Compression mode : Lossless
    Stream size : 1.26 GiB (8%)
    Language : English
    Default : No
    Forced : No

    Text #1
    ID : 6
    Format : UTF-8
    Codec ID : S_TEXT/UTF8
    Codec ID/Info : UTF-8 Plain Text
    Duration : 1 h 24 min
    Bit rate : 27 b/s
    Count of elements : 576
    Stream size : 17.1 KiB (0%)
    Language : English
    Default : No
    Forced : No

    Text #2
    ID : 7
    Format : UTF-8
    Codec ID : S_TEXT/UTF8
    Codec ID/Info : UTF-8 Plain Text
    Duration : 1 h 24 min
    Bit rate : 28 b/s
    Count of elements : 562
    Stream size : 17.7 KiB (0%)
    Language : German
    Default : No
    Forced : No

    Text #3
    ID : 8
    Format : UTF-8
    Codec ID : S_TEXT/UTF8
    Codec ID/Info : UTF-8 Plain Text
    Duration : 1 h 24 min
    Bit rate : 23 b/s
    Count of elements : 649
    Stream size : 14.2 KiB (0%)
    Title : Latin
    Language : Spanish
    Default : No
    Forced : No

    Menu
    00:00:00.000 : Глава 01
    00:05:49.223 : Глава 02
    00:12:54.064 : Глава 03
    00:20:55.504 : Глава 04
    00:28:06.059 : Глава 05
    00:36:00.408 : Глава 06
    00:42:27.878 : Глава 07
    00:52:17.217 : Глава 08
    00:59:10.838 : Глава 09
    01:05:24.587 : Глава 10
    01:11:00.422 : Глава 11
    01:19:15.250 : Глава 12
    Комментариев: 0
    Просмотров: 190


    Торрент Скачать Сидеров Личеров Размер
    Торрент [rutracker.in] torrent_841049.torrent Скачать Сидеров6 Личеров5 Размер15.81 ГБ


     Дюна / Dune: Part One (2021) WEB-DLRip-AVC | iTunes
    ФорумФильмы
    24 окт 2021, 13:46, K15


    Информация о фильме
    Название: Дюна
    Оригинальное название: Dune: Part One
    Год выпуска: 2021
    Жанр: Фантастика, боевик, драма, приключения
    Режиссер: Дени Вильнёв
    В ролях: Тимоти Шаламе, Ребекка Фергюсон, Оскар Айзек, Джош Бролин, Джейсон Момоа, Зендея, Стеллан Скарсгард, Хавьер Бардем, Дэйв Батиста, Шарлотта Рэмплинг, Стивен Хендерсон, Шэрон Дункан-Брюстер, Чан Чэнь, Давид Дастмалчян, Бабс Олусанмокун

    О фильме: Наследник знаменитого дома Атрейдесов Пол отправляется вместе с семьей на одну из самых опасных планет во Вселенной — Арракис. Здесь нет ничего, кроме песка, палящего солнца, гигантских чудовищ и основной причины межгалактических конфликтов — невероятно ценного ресурса, который называется меланж. В результате захвата власти Пол вынужден бежать и скрываться, и это становится началом его эпического путешествия. Враждебный мир Арракиса приготовил для него множество тяжелых испытаний, но только тот, кто готов взглянуть в глаза своему страху, достоин стать избранным. Экранизация научно-фантастического романа американского писателя Фрэнка Герберта.



    Выпущено: США, Канада, Венгрия, Warner Bros., Villeneuve Films, Legendary Pictures
    Продолжительность: 02:35:51
    Перевод: Дублированный | iTunes
    Субтитры: Русские (2 x Forced, 2 x full), английские

    Файл
    Формат: Matroska
    Качество: WEB-DLRip-AVC
    Видео: 1024x428 at 23.976 fps, x264@L4.1, ~2000 kbps
    Аудио: AC3, 6 ch, ~384 kbps - | Русский |
    Формат субтитров: softsub (SRT)
    ***Релиз от: -=DoMiNo=-
    x264 [info]: frame I:1783 Avg QP:11.84 size: 65273
    x264 [info]: frame P:45821 Avg QP:14.58 size: 22675
    x264 [info]: frame B:175876 Avg QP:16.39 size: 6680

    General
    Unique ID : 201730439695849866642059423735935682011 (0x97C3DE944E3CB3DB4ABE63AC1AB445DB)
    Complete name : K:Dune.2021.WEB-DLRip-AVC.mkv
    Format : Matroska
    Format version : Version 4
    File size : 2.59 GiB
    Duration : 2 h 35 min
    Overall bit rate : 2 380 kb/s
    Encoded date : UTC 2021-10-22 11:13:08
    Writing application : mkvmerge v62.0.0 ('Apollo') 64-bit
    Writing library : libebml v1.4.2 + libmatroska v1.6.4
    Cover : Yes
    Attachments : Cover.jpg / cover 2.jpg

    Video
    ID : 1
    Format : AVC
    Format/Info : Advanced Video Codec
    Format profile : High@L4.1
    Format settings : CABAC / 10 Ref Frames
    Format settings, CABAC : Yes
    Format settings, Reference : 10 frames
    Codec ID : V_MPEG4/ISO/AVC
    Duration : 2 h 35 min
    Bit rate : 2 000 kb/s
    Width : 1 024 pixels
    Height : 428 pixels
    Display aspect ratio : 2.40:1
    Frame rate mode : Constant
    Frame rate : 23.976 (24000/1001) FPS
    Color space : YUV
    Chroma subsampling : 4:2:0
    Bit depth : 8 bits
    Scan type : Progressive
    Bits/(Pixel*Frame) : 0.190
    Stream size : 2.17 GiB (84%)
    Title : -=DoMiNo=-
    Writing library : x264 core 164 r3075+55M 97d28bb t_mod_New [(8 & 10)-bit@all X86_64]
    Encoding settings : cabac=1 / ref=10 / deblock=1:-2:-2 / analyse=0x3:0x133 / me=umh / subme=10 / psy=1 / fade_compensate=0.00 / psy_rd=1.05:0.15 / mixed_ref=1 / me_range=32 / chroma_me=1 / trellis=2 / 8x8dct=1 / cqm=0 / deadzone=21,11 / fast_pskip=0 / chroma_qp_offset=-3 / threads=24 / lookahead_threads=3 / sliced_threads=0 / nr=0 / decimate=0 / interlaced=0 / bluray_compat=0 / constrained_intra=0 / fgo=0 / bframes=10 / b_pyramid=2 / b_adapt=2 / b_bias=0 / direct=3 / weightb=1 / open_gop=0 / weightp=2 / keyint=240 / keyint_min=23 / scenecut=40 / intra_refresh=0 / rc_lookahead=60 / rc=2pass / mbtree=0 / bitrate=2000 / ratetol=1.0 / qcomp=0.60 / qpmin=0:0:0 / qpmax=69:69:69 / qpstep=4 / cplxblur=20.0 / qblur=0.5 / vbv_maxrate=50000 / vbv_bufsize=62500 / nal_hrd=none / filler=0 / ip_ratio=1.40 / pb_ratio=1.30 / aq=2:0.90 / aq-sensitivity=10.00 / aq-factor=1.00:1.00:1.00 / aq2=0 / aq3=0
    Language : English
    Default : Yes
    Forced : No
    Color range : Limited
    Color primaries : BT.709
    Transfer characteristics : BT.709
    Matrix coefficients : BT.709

    Audio
    ID : 2
    Format : AC-3
    Format/Info : Audio Coding 3
    Commercial name : Dolby Digital
    Codec ID : A_AC3
    Duration : 2 h 35 min
    Bit rate mode : Constant
    Bit rate : 384 kb/s
    Channel(s) : 6 channels
    Channel layout : L R C LFE Ls Rs
    Sampling rate : 48.0 kHz
    Frame rate : 31.250 FPS (1536 SPF)
    Compression mode : Lossy
    Delay relative to video : 28 ms
    Stream size : 428 MiB (16%)
    Title : Dub [iTunes]
    Language : Russian
    Service kind : Complete Main
    Default : Yes
    Forced : Yes

    Text #1
    ID : 3
    Format : UTF-8
    Codec ID : S_TEXT/UTF8
    Codec ID/Info : UTF-8 Plain Text
    Duration : 2 h 27 min
    Bit rate : 2 b/s
    Count of elements : 51
    Stream size : 2.44 KiB (0%)
    Title : Forced [iTunes]
    Language : Russian
    Default : Yes
    Forced : No

    Text #2
    ID : 4
    Format : UTF-8
    Codec ID : S_TEXT/UTF8
    Codec ID/Info : UTF-8 Plain Text
    Duration : 2 h 28 min
    Bit rate : 52 b/s
    Count of elements : 1261
    Stream size : 56.9 KiB (0%)
    Title : Full [iTunes]
    Language : Russian
    Default : No
    Forced : No

    Text #3
    ID : 5
    Format : UTF-8
    Codec ID : S_TEXT/UTF8
    Codec ID/Info : UTF-8 Plain Text
    Duration : 2 h 27 min
    Bit rate : 2 b/s
    Count of elements : 67
    Stream size : 2.94 KiB (0%)
    Title : Forced [HDRezka Studio]
    Language : Russian
    Default : No
    Forced : No

    Text #4
    ID : 6
    Format : UTF-8
    Codec ID : S_TEXT/UTF8
    Codec ID/Info : UTF-8 Plain Text
    Duration : 2 h 26 min
    Bit rate : 52 b/s
    Count of elements : 1002
    Stream size : 56.5 KiB (0%)
    Title : Full v.2
    Language : Russian
    Default : No
    Forced : No

    Text #5
    ID : 7
    Format : UTF-8
    Codec ID : S_TEXT/UTF8
    Codec ID/Info : UTF-8 Plain Text
    Duration : 2 h 25 min
    Bit rate : 31 b/s
    Count of elements : 1335
    Stream size : 34.0 KiB (0%)
    Title : Full
    Language : English
    Default : No
    Forced : No

    Text #6
    ID : 8
    Format : UTF-8
    Codec ID : S_TEXT/UTF8
    Codec ID/Info : UTF-8 Plain Text
    Duration : 2 h 26 min
    Bit rate : 41 b/s
    Count of elements : 1723
    Stream size : 44.3 KiB (0%)
    Title : SDH
    Language : English
    Default : No
    Forced : No
    Комментариев: 0
    Просмотров: 202


    Торрент Скачать Сидеров Личеров Размер
    Торрент [rutracker.in] torrent_840853.torrent Скачать Сидеров251 Личеров29 Размер2.59 ГБ


     Поездка / I onde dager / The Trip [боевик, комедия, ужасы, 2021] WEB-DL 720p, Dvo [Pazl Voice]
    ФорумФильмы
    24 окт 2021, 13:44, K15


    Год выпуска: 2021
    Выпущено: Норвегия / 74 Entertainment
    Жанр: боевик, комедия, ужасы
    Режиссер: Томми Виркола
    В ролях: Нуми Рапас, Аксель Хенни, Андре Эриксен, Атле Антонсен, Кристиан Рубек, Нильс Оле Офтебро, Тор Эрик Гунстрем

    О фильме: Пара приезжает в лесной дом, чтобы наладить отношения, но на самом деле каждый из них тайно планирует убить другого. Однако прежде чем им удается осуществить свои намерения, появляются неожиданные посетители.



    Продолжительность: 01:54:10
    Перевод: Любительский (двухголосый, закадровый) | Pazl Voice - Присутствует ненормативная лексика!
    Субтитры: Русские (форсированные, полные), английские, украинские

    Файл
    Формат: Matroska
    Качество: WEB-DL 720p
    Видео: 1280x720 at 24.000 fps, x264@L4.1, ~1671 kbps
    Аудио 1: AC3, 6 ch, ~448 kbps - | Русский |
    Аудио 2: AC3, 6 ch, ~448 kbps - norwegian bokmal (оригинал)
    ► Без Рекламы!
    General
    Unique ID : 9615037264482751326366165228870577294 (0x73BC9F000CB07A17B55173ECEA62C8E)
    Complete name : D:The.Trip.2021.720p.NF.mkv
    Format : Matroska
    Format version : Version 4
    File size : 2.05 GiB
    Duration : 1 h 54 min
    Overall bit rate mode : Variable
    Overall bit rate : 2 570 kb/s
    Encoded date : UTC 2021-10-22 15:20:02
    Writing application : mkvmerge v62.0.0 ('Apollo') 64-bit
    Writing library : libebml v1.4.2 + libmatroska v1.6.4
    Cover : Yes
    Attachments : Cover 2.jpg / Cover.jpg

    Video
    ID : 1
    Format : AVC
    Format/Info : Advanced Video Codec
    Format profile : Main@L3.1
    Format settings : CABAC / 3 Ref Frames
    Format settings, CABAC : Yes
    Format settings, Reference : 3 frames
    Codec ID : V_MPEG4/ISO/AVC
    Duration : 1 h 54 min
    Bit rate mode : Variable
    Bit rate : 1 671 kb/s
    Nominal bit rate : 1 401 kb/s
    Maximum bit rate : 3 735 kb/s
    Width : 1 280 pixels
    Height : 720 pixels
    Display aspect ratio : 16:9
    Frame rate mode : Constant
    Frame rate : 24.000 FPS
    Color space : YUV
    Chroma subsampling : 4:2:0
    Bit depth : 8 bits
    Scan type : Progressive
    Bits/(Pixel*Frame) : 0.076
    Stream size : 1.33 GiB (65%)
    Writing library : x264 core 148 r2724 dbe0335
    Encoding settings : cabac=1 / ref=3 / deblock=1:0:0 / analyse=0x1:0x111 / me=umh / subme=10 / psy=1 / psy_rd=1.00:0.00 / mixed_ref=1 / me_range=24 / chroma_me=1 / trellis=2 / 8x8dct=0 / cqm=0 / deadzone=21,11 / fast_pskip=1 / chroma_qp_offset=-2 / threads=8 / lookahead_threads=1 / sliced_threads=0 / nr=0 / decimate=1 / interlaced=0 / bluray_compat=0 / stitchable=1 / constrained_intra=0 / bframes=2 / b_pyramid=0 / b_adapt=2 / b_bias=0 / direct=3 / weightb=1 / open_gop=0 / weightp=2 / keyint=250 / keyint_min=24 / scenecut=0 / intra_refresh=0 / rc_lookahead=48 / rc=2pass / mbtree=1 / bitrate=1401 / ratetol=1.0 / qcomp=0.50 / qpmin=6 / qpmax=51 / qpstep=4 / cplxblur=20.0 / qblur=0.5 / vbv_maxrate=3735 / vbv_bufsize=4980 / nal_hrd=vbr / filler=0 / ip_ratio=1.40 / aq=1:1.00
    Language : Norwegian Bokmal
    Default : Yes
    Forced : No

    Audio #1
    ID : 2
    Format : AC-3
    Format/Info : Audio Coding 3
    Commercial name : Dolby Digital
    Codec ID : A_AC3
    Duration : 1 h 54 min
    Bit rate mode : Constant
    Bit rate : 448 kb/s
    Channel(s) : 6 channels
    Channel layout : L R C LFE Ls Rs
    Sampling rate : 48.0 kHz
    Frame rate : 31.250 FPS (1536 SPF)
    Compression mode : Lossy
    Stream size : 366 MiB (17%)
    Title : DVO_[PV]
    Language : Russian
    Service kind : Complete Main
    Default : Yes
    Forced : No

    Audio #2
    ID : 3
    Format : AC-3
    Format/Info : Audio Coding 3
    Commercial name : Dolby Digital
    Codec ID : A_AC3
    Duration : 1 h 54 min
    Bit rate mode : Constant
    Bit rate : 448 kb/s
    Channel(s) : 6 channels
    Channel layout : L R C LFE Ls Rs
    Sampling rate : 48.0 kHz
    Frame rate : 31.250 FPS (1536 SPF)
    Compression mode : Lossy
    Stream size : 366 MiB (17%)
    Language : Norwegian
    Service kind : Complete Main
    Default : No
    Forced : No

    Text #1
    ID : 4
    Format : UTF-8
    Codec ID : S_TEXT/UTF8
    Codec ID/Info : UTF-8 Plain Text
    Duration : 1 h 46 min
    Bit rate : 0 b/s
    Count of elements : 16
    Stream size : 664 Bytes (0%)
    Title : Forced
    Language : Russian
    Default : Yes
    Forced : No

    Text #2
    ID : 5
    Format : UTF-8
    Codec ID : S_TEXT/UTF8
    Codec ID/Info : UTF-8 Plain Text
    Duration : 1 h 52 min
    Bit rate : 54 b/s
    Count of elements : 1084
    Stream size : 45.1 KiB (0%)
    Language : Russian
    Default : No
    Forced : No

    Text #3
    ID : 6
    Format : UTF-8
    Codec ID : S_TEXT/UTF8
    Codec ID/Info : UTF-8 Plain Text
    Duration : 1 h 52 min
    Bit rate : 53 b/s
    Count of elements : 1090
    Stream size : 43.8 KiB (0%)
    Language : Ukrainian
    Default : No
    Forced : No

    Text #4
    ID : 7
    Format : UTF-8
    Codec ID : S_TEXT/UTF8
    Codec ID/Info : UTF-8 Plain Text
    Duration : 1 h 52 min
    Bit rate : 32 b/s
    Count of elements : 1028
    Stream size : 27.0 KiB (0%)
    Language : English
    Default : No
    Forced : No

    Text #5
    ID : 8
    Format : UTF-8
    Codec ID : S_TEXT/UTF8
    Codec ID/Info : UTF-8 Plain Text
    Duration : 1 h 50 min
    Bit rate : 43 b/s
    Count of elements : 1248
    Stream size : 35.5 KiB (0%)
    Language : English
    Default : No
    Forced : No

    Text #6
    ID : 9
    Format : UTF-8
    Codec ID : S_TEXT/UTF8
    Codec ID/Info : UTF-8 Plain Text
    Duration : 1 h 50 min
    Bit rate : 58 b/s
    Count of elements : 1694
    Stream size : 47.1 KiB (0%)
    Title : SDH
    Language : English
    Default : No
    Forced : No
    Комментариев: 0
    Просмотров: 201


    Торрент Скачать Сидеров Личеров Размер
    Торрент [rutracker.in] torrent_294642.torrent Скачать Сидеров359 Личеров33 Размер2.05 ГБ


     Поездка / I onde dager / The Trip [Триллер, 2021] WEB-DLRip, Dvo [Pazl Voice]
    ФорумФильмы
    24 окт 2021, 13:42, K15


    Год выхода: 2021
    Жанр: Триллер
    Режиссер: Томми Виркола
    В ролях: Нуми Рапас, Аксель Хенни, Андре Эриксен, Атле Антонсен, Кристиан Рубек, Нильс Оле Офтебро, Тор Эрик Гунстрем

    О фильме: Пара приезжает в лесной дом, чтобы наладить отношения, но на самом деле каждый из них тайно планирует убить другого. Однако прежде чем им удается осуществить свои намерения, появляются неожиданные посетители.



    Страна: Норвегия
    Продолжительность: 01:54:10
    Перевод: Любительский (двухголосый, закадровый) | Pazl Voice

    Файл
    Качество: WEB-DLRip
    Видео: 704x352 (2.000:1), 23,976 fps, XviD ~ 1374 Kbps avg, 0.231 bit/pixel
    Аудио: AC3, 48 kHz, 6 ch, ~448.00 kbps avg | русский | DVO
    Субтитры: Русские (форсированные, полные), украинские (полные) отдельно
    Релиз:
    Комментариев: 0
    Просмотров: 190


    Торрент Скачать Сидеров Личеров Размер
    Торрент [rutracker.in] torrent_294641.torrent Скачать Сидеров987 Личеров120 Размер1.46 ГБ


     Американская история ужасов (10 сезон: 1-10 серии из 10) / American Horror Story [2021, Ужасы, фэнтези, триллер, драма,
    ФорумСериалы
    24 окт 2021, 13:35, K15


    Информация о фильме:
    Название: Американская история ужасов
    Оригинальное название: American Horror Story
    Год выхода: 2021
    Жанр: ужасы, триллер, драма
    Режиссер: Джон Дж. Грэй
    В ролях: Фрэнсис Конрой, Финн Уиттрок, Лили Рэйб, Анджелика Росс, Райан Кира Армстронг, Билли Лурд, Маколей Калкин, Адина Портер, Лесли Гроссман, Эван Питерс, Сара Полсон, Джон Лэси и другие

    Описание: «Американская история ужасов» — это телевизионная хоррор-антология от именитых американских продюсеров Брэда Фалчака и Райана Мерфи. Действие каждого ее сезона разворачивается в новом месте, представляя зрителям отдельную самостоятельную историю с целой галереей внушающих ужас и отвращение персонажей. В сериале, являющем собой гремучую смесь всех наших детских страхов и ночных кошмаров, а также отсылок к культовым ужастикам, можно встретить не только хладнокровных серийных маньяков, но и любителей раскапывать могилы, нимфоманок, сиамских близнецов, верховную жрицу луизианского культа вуду, экспериментирующих над своими пациентами врачей и даже человека-лобстера. Многие герои имеют реальных прототипов, что делает события «Американской истории ужасов» еще более впечатляющими и выводящими из равновесия. Уникальный формат шоу и его успех у зрителей позволяют создателям привлекать к съемкам звезд первой величины, таких как Джессика Лэнг и Леди Гага. Многие из сотрудничающих с Мерфи актеров с охотой соглашаются на новые роли в последующих сезонах. За время своей трансляции на канале FX шоу стабильно удерживало высокие рейтинги, удостоилось множества престижных наград и номинаций.
    Сюжет десятого сезона «Двойной сеанс» (Double Feature): Телевизионный сценарист Гарри Гарднер (Финн Уиттрок) на несколько зимних месяцев приезжает с беременной женой Дорис (Лили Рэйб) и дочкой Альмой (Райан Кира Армстронг) в захолустный Провинстаун. Здесь он надеется найти утерянное вдохновение и написать хоть несколько страниц для нового сериала. По приезде выясняется, что ему придется иметь дело не только с творческим кризисом, но и с весьма криповыми обитателями городка. В супермаркете на него нападает местная сумасшедшая Туберкулезная Карен (Сара Полсон) с пронзительными воплями из разряда «Бегите, глупцы!». А ночью дом атакуют жуткие бледные люди, повадками напоминающие монстров, готовых растерзать свою добычу. От немедленного отъезда Гарри отговаривают новые знакомые — успешные авторы Остин Саммерс (Эван Питерс) и Бэлль Нуар (Фрэнсис Конрой). Когда-то они, как и Гарднер, страдали от писательского ступора, но после нескольких зим в Провинстауне стали выдавать тексты столь желанные в Голливуде, что мигом озолотились. В качестве приманки Остин дает Гарри пилюлю, якобы способную раскрыть его потенциал. Вот только новый приятель умалчивает, какие последствия внезапно открывшегося гения его ждут и кем были те самые бледные люди в прошлой жизни…



    Страна: США
    Студия: 20th Century Fox Television, Brad Falchuk Teley-Vision, Ryan Murphy Productions
    Продолжительность: ~ 00:45:00 серия
    Перевод: Профессиональный (многоголосый, закадровый) - LostFilm



    Информация о файле:
    Кодек: AVC
    Формат: MKV
    Качество: WEB-DLRip-AVC
    Видео: MPEG-4 AVC, 1024x512, 23.976 fps, ~ 1800 kbps
    Аудио RU: AC3, 6 ch, 48 kHz, 384 kbps
    Аудио EN: AC3, 6 ch, 48 kHz, 448 kbps
    Субтитры: Русские (Forced), английские (Full, SDH)


    x264 info: frame I:689 Avg QP:12.77 size: 80906
    x264 info: frame P:15646 Avg QP:16.27 size: 21534
    x264 info: frame B:56288 Avg QP:19.12 size: 5131
    General
    Unique ID : 220499444852905135966502399797734416613 (0xA5E2A5FAADA49D9ADAEFF67D99E820E5)
    Complete name : D:uTorrentAmerican.Horror.Story.2021.S10.Wolf1245.MediaBitAmerican.Horror.Story.2021.MVO.LostFilm.WEB-DLRip-AVC.[-=wolf1245.MediaBit=-]S10.E01.mkv
    Format : Matroska
    Format version : Version 4
    File size : 951 MiB
    Duration : 50 min 29 s
    Overall bit rate : 2 634 kb/s
    Movie name : American.Horror.Story.2021.MVO.LostFilm.WEB-DLRip-AVC.[-=wolf1245.MediaBit=-]S10.E01
    Encoded date : UTC 2021-09-12 09:39:59
    Writing application : mkvmerge v61.0.0 ('So') 64-bit
    Writing library : libebml v1.4.2 + libmatroska v1.6.4
    Video
    ID : 1
    Format : AVC
    Format/Info : Advanced Video Codec
    Format profile : High@L4.1
    Format settings : CABAC / 14 Ref Frames
    Format settings, CABAC : Yes
    Format settings, Reference frames : 14 frames
    Codec ID : V_MPEG4/ISO/AVC
    Duration : 50 min 28 s
    Bit rate : 1 800 kb/s
    Width : 1 024 pixels
    Height : 512 pixels
    Display aspect ratio : 2.000
    Frame rate mode : Constant
    Frame rate : 23.976 (24000/1001) FPS
    Color space : YUV
    Chroma subsampling : 4:2:0
    Bit depth : 8 bits
    Scan type : Progressive
    Bits/(Pixel*Frame) : 0.143
    Stream size : 650 MiB (68%)
    Title : -=[wolf1245.MediaBit]=-
    Writing library : x264 core 161 r3020 d198931
    Encoding settings : cabac=1 / ref=14 / deblock=1:-2:-2 / analyse=0x3:0x133 / me=umh / subme=10 / psy=1 / psy_rd=0.98:0.05 / mixed_ref=1 / me_range=32 / chroma_me=1 / trellis=2 / 8x8dct=1 / cqm=0 / deadzone=21,11 / fast_pskip=1 / chroma_qp_offset=-3 / threads=10 / lookahead_threads=2 / sliced_threads=0 / nr=0 / decimate=1 / interlaced=0 / bluray_compat=0 / constrained_intra=0 / bframes=12 / b_pyramid=2 / b_adapt=2 / b_bias=0 / direct=3 / weightb=1 / open_gop=0 / weightp=2 / keyint=240 / keyint_min=24 / scenecut=40 / intra_refresh=0 / rc_lookahead=60 / rc=2pass / mbtree=1 / bitrate=1800 / ratetol=1.0 / qcomp=0.60 / qpmin=0 / qpmax=69 / qpstep=4 / cplxblur=20.0 / qblur=0.5 / vbv_maxrate=50000 / vbv_bufsize=62500 / nal_hrd=none / filler=0 / ip_ratio=1.40 / aq=3:0.80
    Language : English
    Default : Yes
    Forced : No
    Color range : Limited
    Color primaries : BT.709
    Transfer characteristics : BT.709
    Matrix coefficients : BT.709
    Audio #1
    ID : 2
    Format : AC-3
    Format/Info : Audio Coding 3
    Commercial name : Dolby Digital
    Codec ID : A_AC3
    Duration : 50 min 29 s
    Bit rate mode : Constant
    Bit rate : 384 kb/s
    Channel(s) : 2 channels
    Channel layout : L R
    Sampling rate : 48.0 kHz
    Frame rate : 31.250 FPS (1536 SPF)
    Compression mode : Lossy
    Stream size : 139 MiB (15%)
    Title : LostFilm | MVO
    Language : Russian
    Service kind : Complete Main
    Default : Yes
    Forced : No
    Audio #2
    ID : 3
    Format : AC-3
    Format/Info : Audio Coding 3
    Commercial name : Dolby Digital
    Codec ID : A_AC3
    Duration : 50 min 29 s
    Bit rate mode : Constant
    Bit rate : 448 kb/s
    Channel(s) : 6 channels
    Channel layout : L R C LFE Ls Rs
    Sampling rate : 48.0 kHz
    Frame rate : 31.250 FPS (1536 SPF)
    Compression mode : Lossy
    Stream size : 162 MiB (17%)
    Title : Original
    Language : English
    Service kind : Complete Main
    Default : No
    Forced : No
    Text #1
    ID : 4
    Format : UTF-8
    Codec ID : S_TEXT/UTF8
    Codec ID/Info : UTF-8 Plain Text
    Duration : 1 min 51 s
    Bit rate : 76 b/s
    Count of elements : 19
    Stream size : 1.04 KiB (0%)
    Title : Forced |LF|
    Language : Russian
    Default : Yes
    Forced : No
    Text #2
    ID : 5
    Format : UTF-8
    Codec ID : S_TEXT/UTF8
    Codec ID/Info : UTF-8 Plain Text
    Duration : 49 min 37 s
    Bit rate : 61 b/s
    Count of elements : 863
    Stream size : 22.2 KiB (0%)
    Title : Full
    Language : English
    Default : No
    Forced : No
    Text #3
    ID : 6
    Format : UTF-8
    Codec ID : S_TEXT/UTF8
    Codec ID/Info : UTF-8 Plain Text
    Duration : 49 min 40 s
    Bit rate : 71 b/s
    Count of elements : 1048
    Stream size : 25.9 KiB (0%)
    Title : SDH
    Language : English
    Default : No
    Forced : No
    Menu
    00:00:00.000 : :Studio Logo
    00:00:03.978 : :Scene 3
    00:02:26.978 : :Opening Credits
    00:03:33.978 : :Scene 5
    00:09:48.978 : :Scene 6
    00:16:49.978 : :Scene 7
    00:21:03.978 : :Scene 8
    00:28:48.978 : :Scene 9
    00:35:05.978 : :Scene 10
    00:42:36.978 : :Scene 11
    00:49:48.978 : :End Credits

    Релиз от: &
    Автор релиза:
    Комментариев: 0
    Просмотров: 356


    Торрент Скачать Сидеров Личеров Размер
    Торрент [rutor.is]American.Horror.Story.2021.S10.Wolf1245.MediaBi [vilga... Скачать Сидеров29 Личеров57 Размер8.41 ГБ


     Красотка на взводе / Jolt (2021) WEB-DLRip | HDRezka Studio
    ФорумФильмы
    28 июл 2021, 20:51, K15


    «You're in for a shock»
    Информация о фильме
    Название: Красотка на взводе
    Оригинальное название: Jolt
    Год выхода: 2021
    Жанр: Боевик, комедия
    Режиссер: Таня Уэкслер
    В ролях: Кейт Бекинсейл, Лаверн Кокс, Стэнли Туччи, Бобби Каннавале, Джай Кортни, Сьюзен Сарандон, Константин Грегори, Ори Феффер, Дэвид Брэдли, Льюис Иэн Брэй

    О фильме: Вышибала Линди плохо умеет управлять собственным гневом и постоянно боится кого-то убить в приступе ярости. В качестве самоконтроля она носит специальный жилет, который бьёт её током и успокаивает, прежде чем она совершит необратимое. Но после смерти возлюбленного Линди вынуждена забыть о контроле и отправиться на поиски убийцы.



    Страна: США
    Студия: Busted Shark Productions, Campbell Grobman Films, Eclectic Pictures Inc., Jolt Productions, Millennium Films, Nu Boyana Film Studios
    Продолжительность: 01:31:06
    Перевод: Профессиональный (многоголосый, закадровый) | HDRezka Studio

    Файл
    Качество: WEB-DLRip
    Формат: AVI
    Кодек: XviD
    Видео: 720x304 (2.35:1), 23,976 fps, XviD ~ 1839 Kbps avg, 0.350 bit/pixel
    Аудио: AC3, 48 kHz, 6 ch, ~448.00 kbps avg | русский | HDRezka Studio | с цензурой
    Субтитры: Русские (форсированные) отдельно
    Релиз:

    Комментариев: 0
    Просмотров: 354


    Торрент Скачать Сидеров Личеров Размер
    Торрент torrent_826741 [vilgame.site].torrent Скачать Сидеров23 Личеров21 Размер1.46 ГБ


     Mafia: Definitive Edition [v 1.0.1 + DLC] (2020) PC | RePack от FitGirl
    ФорумИгры
    16 фев 2021, 21:27, K15


    Mafia: Definitive Edition
    v1.0.1 + Chicago Outfit Pack DLC + Windows 7 Fix
    Дата выпуска: 25 сентября 2020
    Жанр: Action, Shooter, Driving, Open world, Third-person, 3D
    Разработчик: Hangar 13
    Издательство: 2K Games
    Платформа: PC
    Движок: собственный
    Пользовательские оценки в Steam: 87% обзоров пользователей - положительные (11895 рецензии)
    Язык интерфейса: Русский, Английский, Французский, Итальянский, Немецкий, Испанский, Чешский, Японский, Корейский, Польский, Бр. Португальский, Китайский (Упр.), Испанский Лат. Ам., Китайский (Трад.)
    Язык озвучки: Русский, Английский
    Тип издания: Repack
    Лекарство: вшито (CPY)

    Системные требования: ОС: Windows 7 x64 и выше
    Процессор: Intel Core-i5 2550K 3.4GHz / AMD FX 8120 3.1 GHz и лучше
    Память: 6 Гб
    Видео: NVIDIA GeForce GTX 660 / AMD Radeon HD 7870 или лучше
    DirectX: 11
    Место на диске: до 29 Гб

    ВНИМАНИЕ! Минимальный размер репака - 11.1 Гб. Внимательно прочитайте раздел "Особенности репака" перед скачиванием.

    Описание: Первая часть криминальной саги Mafia — 30-е годы, Лост-Хэвен, Иллинойс Ремейк культовой игры, воссозданной с нуля. Постройте карьеру мафиози во времена сухого закона. После случайной встречи с мафией таксист Томми Анджело попадает в мир организованной преступности. Сначала он настороженно относится к семье Сальери, но большие деньги меняют его отношение…

    Ваша гангстерская сага: Станьте гангстером во времена сухого закона и поднимитесь по ступеням преступной иерархии.

    Лост-Хэвен, Иллинойс: Тщательная реконструкция города 30-х годов XX века — архитектура, автомобили и культура периода между Мировыми войнами.

    Ремейк классики: Любовно воссозданная игра с расширенным сюжетом и возможностями, а также оригинальным саундтреком. Это Mafia, которую вы помните и любите, в современном исполнении.


    Репак основан на ISO-образе Mafia.Definitive.Edition-CPY: cpy-mde.iso (40,035,942,400 байт)
    Включен Chicago Outfit Pack DLC; версия игры v1.0.1 (изначальный Steam-релиз)
    100% Lossless и MD5 Perfect: все файлы после установки идентичны оригинальному релизу с точностью до бита (не считая удаленных озвучек)
    Удалены все озвучки, кроме русской и английской, НИЧЕГО не перекодировано
    Возможность не скачивать и не устанавливать ненужную озвучку
    Существенно улучшено сжатие (с 37.3 до 11.1~12.4 Гб, в зависимости от выбранных озвучек)
    Установка занимает 10-20 минут (зависит от вашей системы и выбранных компонентов)
    После инсталляции игра занимает до 29 Гб
    После установки доступна опция проверки контрольных сумм всех файлов, чтобы убедиться, что репак установился нормально
    Язык изменяется в настройках игры
    Для установки репака требуется минимум 3 Гб свободной оперативной памяти (включая виртуальную)
    В репаке используется библиотека сжатия от Razor12911
    Если у вас Windows 7 - прочитайте инструкции в файле readme.txt в папке "Windows 7 Fix"

    [Repack] by FitGirl

    Если при установке моих или любых других репаков у вас возникают ошибки (особенно Xdelta или с Unarc.dll), попробуйте следующие действия:

    Перехешируйте торрент! - например в uTorrent нужно выбрать игру, нажать стоп, нажать правую кнопку мыши и выбрать "Форсировать проверку" (Force re-check).
    Убедитесь, что в вашем имени пользователя в Windows нет русских или других нелатинских букв - допустимы только латинские буквы и цифры
    Отключите антивирус - он может ложно срабатывать на лекарства, чем либо прервет установку репака, либо просто не даст запустить игру
    Отключите UAC - он может блокировать программы распаковки/сборки внутри инсталлятора
    Убедитесь, что размер виртуальной памяти (файл подкачки) у вас не менее объема физической памяти, а лучше - вдвое больше.
    Убедитесь, что на целевом жестком диске, а также на диске с временными файлами Windows у вас достаточно места.
    Попробуйте установить игру НЕ на диск C:, либо наоборот - НА диск C:, если на другой не ставится - права в Windows штука такая...
    Посмотрите, нет ли в системной папке Windows (и глубже) файла unarc.dll. Если он есть - удалите его
    Запустите инсталлятор с правами, как показано на картинке (меню "Свойства" при нажатии правой кнопки мыши на файле):


    Комментариев: 27
    Просмотров: 2226


    Торрент Скачать Сидеров Личеров Размер
    Торрент [mytorrnado.ru].t13287.torrent Скачать Сидеров0 Личеров0 Размер12.39 ГБ


     Телохранитель киллера / The Hitman's Bodyguard (2017) UHD BDRemux 2160p | 4K | HDR | Dolby Vision Profile 8 | Лицензия
    ФорумФильмы
    16 фев 2021, 21:17, K15


    Информация о фильме
    Название: Телохранитель киллера
    Оригинальное название: The Hitman's Bodyguard
    Год выхода: 2017
    Жанр: Боевик, комедия
    Режиссер: Патрик Хьюз
    В ролях: Райан Рейнольдс, Сэмюэл Л. Джексон, Элоди Юнг, Сальма Хайек, Гэри Олдман, Жоаки де Алмейда, Юрий Колокольников, Тине Жустра, Сэм Хэзелдайн, Ричард Э. Грант, Род Халлетт, Нуртье Херлар, Михаил Горевой, Кирсти Митчелл, Крис Брейзиер, Алан МакКенна, Жозефин де ла Буме, Ори Феффер, Александр Меркюри, Майкл Джинкс, Джастин Пирсон, Оуэн Дэвис

    О фильме: Он — телохранитель мирового уровня. Его новая работа — охранять киллера, которого все мечтают убить. Он и сам с удовольствием прикончил бы этого гада. Но работа есть работа: смертельные враги в прошлом, они вынуждены объединиться в настоящем, чтобы выжить. Однако их методы настолько различны, а принципы противоположны, что вопрос выживания — под большим вопросом.



    Страна: США, Китай, Болгария, Нидерланды
    Студия: Campbell Grobman Films, Cristal Pictures, East Light Media, Millennium Films
    Продолжительность: 01:58:25
    Перевод: Дублированный | Лицензия

    Файл
    Кодек: H.265
    Качество: UHD BDRemux 2160p
    Видео: HEVC HDR, Dolby Vision Profile 8, 70.9 Mбит/с, 3840x2160, 23.976 кадр/с
    Аудио #1 Русский: AC3, 48.0 kHz, 6 ch, 640 kb/s | [Дублированный]
    Аудио #2 Русский: DTS-HD Master Audio, 48.0 kHz, 5.1 ch, 3888 kb/s | [Дублированный]
    Аудио #3 English: Dolby TrueHD/Atmos Audio, 7.1 ch, 48 kHz, 4600 kbps
    Аудио #4 English: AC3, 48.0 kHz, 6 ch, 640 kb/s
    Субтитры: русские(forced, полные), английские
    Дополнительная информация: Данный вид релизов в MKV сделан в 8-м профиле Dolby Vision для воспроизведении на устройствах с поддержкой DV. Протестировано на тв-боксах Nvidia Shield 2019, Zidoo Z1000 Pro и Ugoos AM6+. На устройствах без поддержки Dolby Vision будет играть обычный HDR10.
    General
    Unique ID : 80318260841832905481275807018341004384 (0x3C6CBBFF416532F1B7A42EC9894A7460)
    Complete name : DS918videoKino 4K DVThe.Hitman's.Bodyguard.2017.BDREMUX.2160p.DV.HDR.mkv
    Format : Matroska
    Format version : Version 2
    File size : 66.8 GiB
    Duration : 1 h 58 min
    Overall bit rate mode : Variable
    Overall bit rate : 80.8 Mb/s
    Movie name : The Hitman's Bodyguard
    Encoded date : UTC 2021-02-01 11:07:17
    Writing application : MakeMKV v1.15.4 win(x64-release)
    Writing library : libmakemkv v1.15.4 (1.3.10/1.5.2) win(x64-release)

    Video
    ID : 1
    Format : HEVC
    Format/Info : High Efficiency Video Coding
    Format profile : Main 10@L5.1@High
    HDR format : Dolby Vision, Version 1.0, dvhe.08.06, BL+RPU, Blu-ray compatible / SMPTE ST 2086, HDR10 compatible
    Codec ID : V_MPEGH/ISO/HEVC
    Duration : 1 h 58 min
    Bit rate : 70.9 Mb/s
    Width : 3 840 pixels
    Height : 2 160 pixels
    Display aspect ratio : 16:9
    Frame rate mode : Constant
    Frame rate : 23.976 (24000/1001) FPS
    Color space : YUV
    Chroma subsampling : 4:2:0 (Type 2)
    Bit depth : 10 bits
    Bits/(Pixel*Frame) : 0.357
    Stream size : 58.7 GiB (88%)
    Language : English
    Default : No
    Forced : No
    Color range : Limited
    Color primaries : BT.2020
    Transfer characteristics : PQ
    Matrix coefficients : BT.2020 non-constant
    Mastering display color pri : Display P3
    Mastering display luminance : min: 0.0050 cd/m2, max: 1000 cd/m2
    Maximum Content Light Level : 1000 cd/m2
    Maximum Frame-Average Light : 566 cd/m2

    Audio #1
    ID : 2
    Format : AC-3
    Format/Info : Audio Coding 3
    Commercial name : Dolby Digital
    Codec ID : A_AC3
    Duration : 1 h 58 min
    Bit rate mode : Constant
    Bit rate : 640 kb/s
    Channel(s) : 6 channels
    Channel layout : L R C LFE Ls Rs
    Sampling rate : 48.0 kHz
    Frame rate : 31.250 FPS (1536 SPF)
    Compression mode : Lossy
    Stream size : 542 MiB (1%)
    Title : Dub
    Language : Russian
    Service kind : Complete Main
    Default : Yes
    Forced : No

    Audio #2
    ID : 3
    Format : DTS XLL
    Format/Info : Digital Theater Systems
    Commercial name : DTS-HD Master Audio
    Codec ID : A_DTS
    Duration : 1 h 58 min
    Bit rate mode : Variable
    Bit rate : 3 888 kb/s
    Channel(s) : 6 channels
    Channel layout : C L R Ls Rs LFE
    Sampling rate : 48.0 kHz
    Frame rate : 93.750 FPS (512 SPF)
    Bit depth : 24 bits
    Compression mode : Lossless
    Stream size : 3.21 GiB (5%)
    Title : Dub
    Language : Russian
    Default : No
    Forced : No

    Audio #3
    ID : 4
    Format : MLP FBA 16-ch
    Format/Info : Meridian Lossless Packing FBA with 16-channel presentation
    Commercial name : Dolby TrueHD with Dolby Atmos
    Codec ID : A_TRUEHD
    Duration : 1 h 58 min
    Bit rate mode : Variable
    Bit rate : 4 600 kb/s
    Maximum bit rate : 8 598 kb/s
    Channel(s) : 8 channels
    Channel layout : L R C LFE Ls Rs Lb Rb
    Sampling rate : 48.0 kHz
    Frame rate : 1 200.000 FPS (40 SPF)
    Bit depth : 24 bits
    Compression mode : Lossless
    Stream size : 3.81 GiB (6%)
    Title : Surround 7.1
    Language : English
    Default : No
    Forced : No
    Number of dynamic objects : 15
    Bed channel count : 1 channel
    Bed channel configuration : LFE

    Audio #4
    ID : 5
    Format : AC-3
    Format/Info : Audio Coding 3
    Commercial name : Dolby Digital
    Format settings : Dolby Surround EX
    Codec ID : A_AC3
    Duration : 1 h 58 min
    Bit rate mode : Constant
    Bit rate : 640 kb/s
    Channel(s) : 6 channels
    Channel layout : L R C LFE Ls Rs
    Sampling rate : 48.0 kHz
    Frame rate : 31.250 FPS (1536 SPF)
    Compression mode : Lossy
    Stream size : 542 MiB (1%)
    Title : Surround 5.1
    Language : English
    Service kind : Complete Main
    Default : No
    Forced : No

    Text #1
    ID : 6
    Format : PGS
    Codec ID : S_HDMV/PGS
    Codec ID/Info : Picture based subtitle format used on BDs/HD-DVDs
    Duration : 1 h 56 min
    Bit rate : 553 b/s
    Count of elements : 42
    Stream size : 474 KiB (0%)
    Title : forced
    Language : Russian
    Default : Yes
    Forced : No

    Text #2
    ID : 7
    Format : PGS
    Codec ID : S_HDMV/PGS
    Codec ID/Info : Picture based subtitle format used on BDs/HD-DVDs
    Duration : 1 h 56 min
    Bit rate : 38.1 kb/s
    Count of elements : 3086
    Stream size : 31.9 MiB (0%)
    Title : full
    Language : Russian
    Default : No
    Forced : No

    Text #3
    ID : 8
    Format : PGS
    Codec ID : S_HDMV/PGS
    Codec ID/Info : Picture based subtitle format used on BDs/HD-DVDs
    Duration : 1 h 57 min
    Bit rate : 52.4 kb/s
    Count of elements : 3910
    Stream size : 44.1 MiB (0%)
    Language : English
    Default : No
    Forced : No

    Menu
    00:00:00.000 : en:Chapter 01
    00:07:23.901 : en:Chapter 02
    00:13:54.834 : en:Chapter 03
    00:20:25.140 : en:Chapter 04
    00:27:21.973 : en:Chapter 05
    00:32:55.348 : en:Chapter 06
    00:38:27.263 : en:Chapter 07
    00:46:53.936 : en:Chapter 08
    00:56:41.189 : en:Chapter 09
    01:00:25.204 : en:Chapter 10
    01:09:13.232 : en:Chapter 11
    01:16:36.216 : en:Chapter 12
    01:21:13.076 : en:Chapter 13
    01:27:46.928 : en:Chapter 14
    01:35:07.660 : en:Chapter 15
    01:40:38.699 : en:Chapter 16
    01:57:11.190 : en:Chapter 17
    Комментариев: 0
    Просмотров: 551


    Торрент Скачать Сидеров Личеров Размер
    Торрент [mytorrnado.ru].t12997.torrent Скачать Сидеров0 Личеров0 Размер66.84 ГБ







  •  Новые люди

  •  Топ пользователи

  • Имя пользователя:


    Пароль:


    Remember me

    Register now!


  •  Friends
  • Online
    No friends online

    Offline
    No friends offline

  •  Статистика
  • Totals
    Всего сообщений: 835
    Всего тем: 292
    Total Announcements: 0
    Total Stickies: 0
    Total Attachments: 174

    Topics per day: 0
    Posts per day: 1
    Users per day: 0
    Topics per user: 1
    Posts per user: 3
    Posts per topic: 3

    Всего пользователей: 290
    Новый пользователь: DJUSxxx

  •  Наша команда