Побег / Prison Break [S01-05 + Финальный побег] [боевик, триллер, драма, криминал, 2005-2017] BDRip-HEVC 1080p, Dub

Торрент [ Статус: Проверен ] Скачать Сидеров Личеров Размер
[rutracker.in] torrent_785775.torrent
0 0 245.83 ГБ
K15
Администратор
Сообщения: 84
Зарегистрирован: 16 сен 2019, 20:47

Побег / Prison Break [S01-05 + Финальный побег] [боевик, триллер, драма, криминал, 2005-2017] BDRip-HEVC 1080p, Dub

Сообщение K15 » 31 дек 2020, 11:40

Название: Побег
Оригинальное название: Prison Break
Год выхода: 2005, 2006, 2007, 2008, 2009, 2017
Жанр: боевик, триллер, драма, криминал
Производство: Великобритания, США / 20th Century Studios, Original Film
Режиссёр: Бобби Рот, Кевин Хукс, Майя Врвило, Брэд Тернер
Актёры: Доминик Пёрселл, Вентворт Миллер, Амори Ноласко, Роберт Неппер, Джоди Лин О’Киф, Сара Уэйн Кэллис, Уильям Фихтнер, Леон Рассом, Ким Коутс, Барбара Ив Харрис, Уэйд Уильямс, Марк Фойерстин, Пол Адельштейн, Марина Бенедикт, Рокмонд Данбар, Кристиан Майкл Купер, Стив Музакис, Эмин Эль Гамин, Кертис Льюм, Бобби Надери

Описание: Сейчас трудно поверить в то, что в 2003-м руководство канала Fox сомневалось в потенциале сериала о гениальном побеге из тюрьмы. К большой радости зрителей, спустя два года криминальная драма «Побег» все же увидела свет и имела такой оглушительный успех, что боссы телесети, недолго думая, дали согласие на съемки полноценного первого сезона. Шоу многократно номинировалось на различные премии. Сериал становился соискателем «Золотого глобуса», а композитор Рамин Джавади за созданное им музыкальное сопровождение был претендентом на статуэтку «Эмми». Для создателя проекта Пола Шойринга «Побег» стал первой серьезной работой на телевидении. История боровшихся за свободу и справедливость братьев Майкла и Линкольна на протяжении четырех сезонов приковывала внимание зрителей, не на шутку переживавших за судьбы героев. Шоу отличилось и великолепным актерским составом — Вентворт Миллер и Доминик Пёрселл так хорошо смотрелись в дуэте, что их воссоединение во «Флэше» спустя много лет вызвало бурю эмоций у сериаломанов. Высокий градус напряжения — отличительная черта «Побега», обязательного к просмотру зрителям, которым нравятся динамичные проекты с лихо закрученным сюжетом, полным непредсказуемых ходов. Большинство людей пытаются избежать тюрьмы, но только не Майкл Скофилд. Он-то как раз мечтает оказаться в местах лишения свободы, однако всему есть свое объяснение. Дело в том, что его брат Линкольн Барроуз в прошлом не слишком старался соблюдать закон, а потому никого не удивил тот факт, что его обвинили в убийстве и отправили на смертную казнь. Майкл уверен, что старшего брата подставили, а потому нужно восстановить справедливость и помочь Линкольну избежать незаслуженного наказания. Скофилд придумывает гениальный план — нужно попасть в тюрьму «Фокс Ривер», где содержится брат, и устроить побег. Будучи инженером-конструктором, Майкл работал в фирме, проектировавшей этот объект, а потому ему известно немало подробностей об устройстве тюрьмы. Чтобы в ней очутиться, Скофилд идет на ограбление банка и отказывается от услуг адвоката. При этом он заранее сделал копию плана здания в виде татуировки внушительных размеров. Дело за малым — воплотить задуманное в жизнь. Но как бы хорошо ни был подготовлен Майкл, в тюрьме свои законы, и его замысел по спасению старшего брата может рухнуть в один миг…

Продолжительность: 15:59:57 / 16:02:10 / 09:29:01 / 16:13:35 / 01:29:06 / 06:33:40
Качество видео: BDRip
Перевод: дублированный, многоголосый, одноголосый
Видео: HEVC/H.265, 1916x1080/1918x1080/1920x1080, ~4360 Kbps-12.5 Mbps
Аудио: AC3, 2/6 ch, 192 - 640 kbps, Русский, Английский


Название: Побег
Оригинальное название: Prison Break
Год выхода: 2005
Жанр: боевик, триллер, драма, криминал
Режиссёр: Бобби Рот, Кевин Хукс, Майя Врвило
В ролях: Вентворт Миллер, Доминик Пёрселл, Амори Ноласко, Роберт Неппер, Сара Уэйн Кэллис, Уэйд Уильямс, Марк Фойерстин, Уильям Фихтнер, Пол Адельштейн, Марина Бенедикт

О фильме: Это история о двух братьях. Старший — Линкольн Барроуз, парень неблагополучный, бывший наркоман — находится под стражей в тюрьме строгого режима «Фокс Ривер» в ожидании смертной казни за убийство брата вице-президента, которого он не совершал. Младший брат Майкл Скофилд решает спасти своего брата и устроить побег из тюрьмы. Для реализации плана Майкл устраивает фальшивое ограбление банка, отказывается от адвоката и сам садится в ту же тюрьму, где ждет казни его брат. В своё время он работал в фирме, которая занималась планированием объекта «Фокс Ривер» и знает немало интересных особенностей всех помещений. Вся необходимая информация всегда находится при Майкле, поскольку перед отправкой на тюремные нары он сделал себе впечатляющую татуировку на теле. В то время как Майкл работает над выполнением плана в тюрьме, знакомясь с местными авторитетами и готовя побег века, подруга детства братьев — адвокат Вероника Донован занимается собственным расследованием убийства вице-президента. Она пытается выяснить, кто же подставил Линкольна и кто стоит за чередой убийств, связанных с этим делом.

Продолжительность: 15:59:57
Перевод: дублированный, многоголосый, одноголосый

Качество: BDRip-HEVC 1080p
Кодек: HEVC (x265)
Видео: 1920x1080 (16:9), 5870-8852 Кбит/сек, HEVC (Main10@L.4.1@High) 10 бит
Звук:
Аудио1: AC3, 6 ch, 384 Kbps - Русский, Дублированный (RenTV)
Аудио2: AC3, 6 ch, 640 Kbps - Русский, Одноголосый (NovaFiLM.TV)
Аудио3: AC3, 6 ch, 448 Kbps - Русский, Многоголосый (RenTV)
Аудио4: AC3, 6 ch, 384 Kbps - English, Original

Субтитры: Русские полные (SRT), English full (SRT)

Навигация по главам: Есть




x265 [info]: frame I: 266, Avg QP:17.81 kb/s: 20787.29
x265 [info]: frame P: 11403, Avg QP:19.24 kb/s: 16227.67
x265 [info]: frame B: 51186, Avg QP:21.24 kb/s: 5932.09
x265 [info]: Weighted P-Frames: Y:3.1% UV:2.4%
x265 [info]: Weighted B-Frames: Y:2.5% UV:1.7%
x265 [info]: consecutive B-frames: 1.8% 1.5% 2.7% 27.7% 11.4% 40.3% 6.3% 5.8% 1.3% 0.4% 0.2% 0.2% 0.5%
x265 [info]: encoded 62855 frames in 81369.80s (0.77 fps), 7862.76 kb/s, Avg QP:20.86

Общее
Уникальный идентификатор : 45761192030194317114391238942010230748 (0x226D48F5E724DD03AE26D9351979C7DC)
Полное имя : ..Prison.Break.S01E01.Pilot.mkv
Формат : Matroska
Версия формата : Version 4
Размер файла : 2,97 Гбайт
Продолжительность : 43 м. 41 с.
Общий поток : 9 722 Кбит/сек
Название фильма : Prison.Break.s01e01.Pilot
Дата кодирования : UTC 2020-08-24 05:57:54
Программа кодирования : mkvmerge v49.0.0 ('Sick Of Losing Soulmates') 64-bit
Библиотека кодирования : libebml v1.4.0 + libmatroska v1.6.1

Видео
Идентификатор : 1
Формат : HEVC
Формат/Информация : High Efficiency Video Coding
Профиль формата : Main 10@L4@Main
Идентификатор кодека : V_MPEGH/ISO/HEVC
Продолжительность : 43 м. 41 с.
Битрейт : 7 864 Кбит/сек
Ширина : 1 920 пикселей
Высота : 1 080 пикселей
Соотношение сторон : 16:9
Режим частоты кадров : Постоянный
Частота кадров : 23,976 (24000/1001) кадра/сек
Цветовое пространство : YUV
Субдискретизация насыщенности : 4:2:0
Битовая глубина : 10 бит
Бит/(Пиксели*Кадры) : 0.158
Размер потока : 2,40 Гбайт (81%)
Заголовок : Prison.Break.s01e01 / Rip by OldGamer
Библиотека кодирования : x265 3.4+1-7b120308dc64:[Windows][GCC 10.1.0][64 bit] 10bit
Настройки программы : cpuid=1111039 / frame-threads=3 / numa-pools=12 / wpp / no-pmode / no-pme / no-psnr / no-ssim / log-level=2 / input-csp=1 / input-res=1920x1080 / interlace=0 / total-frames=62855 / level-idc=0 / high-tier=1 / uhd-bd=0 / ref=5 / no-allow-non-conformance / no-repeat-headers / annexb / no-aud / no-hrd / info / hash=0 / no-temporal-layers / open-gop / min-keyint=23 / keyint=240 / gop-lookahead=0 / bframes=12 / b-adapt=2 / b-pyramid / bframe-bias=0 / rc-lookahead=60 / lookahead-slices=0 / scenecut=40 / hist-scenecut=0 / radl=0 / no-splice / no-intra-refresh / ctu=64 / min-cu-size=8 / rect / amp / max-tu-size=32 / tu-inter-depth=4 / tu-intra-depth=4 / limit-tu=1 / rdoq-level=2 / dynamic-rd=0.00 / no-ssim-rd / signhide / no-tskip / nr-intra=0 / nr-inter=0 / no-constrained-intra / no-strong-intra-smoothing / max-merge=5 / limit-refs=3 / no-limit-modes / me=3 / subme=7 / merange=57 / temporal-mvp / no-frame-dup / no-hme / weightp / weightb / no-analyze-src-pics / deblock=-3:-3 / no-sao / no-sao-non-deblock / rd=6 / selective-sao=0 / no-early-skip / rskip / no-fast-intra / no-tskip-fast / no-cu-lossless / b-intra / no-splitrd-skip / rdpenalty=0 / psy-rd=2.00 / psy-rdoq=1.00 / no-rd-refine / no-lossless / cbqpoffs=0 / crqpoffs=0 / rc=crf / crf=19.8 / qcomp=0.60 / qpstep=4 / stats-write=0 / stats-read=0 / ipratio=1.40 / pbratio=1.30 / aq-mode=2 / aq-strength=0.80 / no-cutree / zone-count=0 / no-strict-cbr / qg-size=32 / no-rc-grain / qpmax=69 / qpmin=0 / no-const-vbv / sar=1 / overscan=0 / videoformat=5 / range=0 / colorprim=2 / transfer=2 / colormatrix=2 / chromaloc=0 / display-window=0 / cll=0,0 / min-luma=0 / max-luma=1023 / log2-max-poc-lsb=8 / vui-timing-info / vui-hrd-info / slices=1 / no-opt-qp-pps / no-opt-ref-list-length-pps / no-multi-pass-opt-rps / scenecut-bias=0.00 / hist-threshold=0.01 / no-opt-cu-delta-qp / no-aq-motion / no-hdr10 / no-hdr10-opt / no-dhdr10-opt / no-idr-recovery-sei / analysis-reuse-level=0 / analysis-save-reuse-level=0 / analysis-load-reuse-level=0 / scale-factor=0 / refine-intra=0 / refine-inter=0 / refine-mv=1 / refine-ctu-distortion=0 / no-limit-sao / ctu-info=0 / no-lowpass-dct / refine-analysis-type=0 / copy-pic=1 / max-ausize-factor=1.0 / no-dynamic-refine / no-single-sei / no-hevc-aq / no-svt / no-field / qp-adaptation-range=1.00 / no-scenecut-aware-qpconformance-window-offsets / right=0 / bottom=0 / decoder-max-rate=0
Язык : English
Default : Да
Forced : Нет

Аудио #1
Идентификатор : 2
Формат : AC-3
Формат/Информация : Audio Coding 3
Коммерческое название : Dolby Digital
Идентификатор кодека : A_AC3
Продолжительность : 43 м. 38 с.
Вид битрейта : Постоянный
Битрейт : 384 Кбит/сек
Каналы : 6 каналов
Channel layout : L R C LFE Ls Rs
Частота : 48,0 КГц
Частота кадров : 31,250 кадров/сек (1536 SPF)
Метод сжатия : С потерями
Размер потока : 120 Мбайт (4%)
Заголовок : Dub (RenTV)
Язык : Russian
Service kind : Complete Main
Default : Да
Forced : Нет

Аудио #2
Идентификатор : 3
Формат : AC-3
Формат/Информация : Audio Coding 3
Коммерческое название : Dolby Digital
Идентификатор кодека : A_AC3
Продолжительность : 43 м. 41 с.
Вид битрейта : Постоянный
Битрейт : 640 Кбит/сек
Каналы : 6 каналов
Channel layout : L R C LFE Ls Rs
Частота : 48,0 КГц
Частота кадров : 31,250 кадров/сек (1536 SPF)
Метод сжатия : С потерями
Размер потока : 200 Мбайт (7%)
Заголовок : MVO (NovaFiLM.TV)
Язык : Russian
Service kind : Complete Main
Default : Нет
Forced : Нет

Аудио #3
Идентификатор : 4
Формат : AC-3
Формат/Информация : Audio Coding 3
Коммерческое название : Dolby Digital
Идентификатор кодека : A_AC3
Продолжительность : 43 м. 41 с.
Вид битрейта : Постоянный
Битрейт : 448 Кбит/сек
Каналы : 6 каналов
Channel layout : L R C LFE Ls Rs
Частота : 48,0 КГц
Частота кадров : 31,250 кадров/сек (1536 SPF)
Метод сжатия : С потерями
Размер потока : 140 Мбайт (5%)
Заголовок : MVO (RenTV)
Язык : Russian
Service kind : Complete Main
Default : Нет
Forced : Нет

Аудио #4
Идентификатор : 5
Формат : AC-3
Формат/Информация : Audio Coding 3
Коммерческое название : Dolby Digital
Идентификатор кодека : A_AC3
Продолжительность : 43 м. 41 с.
Вид битрейта : Постоянный
Битрейт : 384 Кбит/сек
Каналы : 6 каналов
Channel layout : L R C LFE Ls Rs
Частота : 48,0 КГц
Частота кадров : 31,250 кадров/сек (1536 SPF)
Метод сжатия : С потерями
Размер потока : 120 Мбайт (4%)
Язык : English
Service kind : Complete Main
Default : Нет
Forced : Нет

Текст #1
Идентификатор : 6
Формат : UTF-8
Идентификатор кодека : S_TEXT/UTF8
Идентификатор кодека/Информация : UTF-8 Plain Text
Продолжительность : 41 м. 59 с.
Битрейт : 117 бит/сек
Count of elements : 693
Размер потока : 36,2 Кбайт (0%)
Заголовок : NovaFiLM.TV
Язык : Russian
Default : Нет
Forced : Нет

Текст #2
Идентификатор : 7
Формат : UTF-8
Идентификатор кодека : S_TEXT/UTF8
Идентификатор кодека/Информация : UTF-8 Plain Text
Продолжительность : 43 м. 12 с.
Битрейт : 107 бит/сек
Count of elements : 480
Размер потока : 33,9 Кбайт (0%)
Заголовок : SDl Меdiа Grоuр
Язык : Russian
Default : Нет
Forced : Нет

Текст #3
Идентификатор : 8
Формат : UTF-8
Идентификатор кодека : S_TEXT/UTF8
Идентификатор кодека/Информация : UTF-8 Plain Text
Продолжительность : 42 м. 19 с.
Битрейт : 75 бит/сек
Count of elements : 602
Размер потока : 23,3 Кбайт (0%)
Язык : English
Default : Нет
Forced : Нет

Меню
00:00:00.000 : en:1
00:05:13.063 : en:2
00:08:34.764 : en:3
00:11:06.666 : en:4
00:14:05.428 : en:5
00:15:36.769 : en:6
00:17:20.247 : en:7
00:19:44.517 : en:8
00:25:57.097 : en:9
00:31:53.745 : en:10
00:35:26.291 : en:11
00:39:24.821 : en:12
00:43:37.240 : en:13
00:43:40.618 : en:14

Название: Побег
Оригинальное название: Prison Break
Год выхода: 2006
Жанр: боевик, триллер, драма, криминал
Режиссёр: Бобби Рот, Кевин Хукс, Майя Врвило
В ролях: Вентворт Миллер, Доминик Пёрселл, Амори Ноласко, Роберт Неппер, Сара Уэйн Кэллис, Уэйд Уильямс, Марк Фойерстин, Уильям Фихтнер, Пол Адельштейн, Марина Бенедикт

О фильме: Второй сезон начинается с побега восьми заключённых из тюрьмы «Фокс Ривер». После побега беглецы разделяются для реализации своих планов. Брэда Беллика увольняют из тюрьмы, где он работал главным надзирателем, после чего он решает подключиться к розыскам беглецов за обещанное за их поимку вознаграждение. Федеральный агент Александр Махоун возглавляет группу поимки беглецов, но впоследствии выясняется, что его завербовала «компания» для уничтожения всех сбежавших из тюрьмы. Агент секретной службы Пол Келлерман работавший на «компанию» отстранён от дел, и решает в отместку присоединиться к сбежавшим братьям. Позднее он реабилитирует Сару Танкреди и Линкольна Барроуза. Братья смогли уплыть в Панаму, куда за ними отправился Махоун и Беллик. Майкл подставляет Махоуна, но и сам попадается в руки Панамской полиции, после чего его самого, Махоуна, Беллика и Багвела сажают в местную тюрьму именуемую — «Сона».

Продолжительность: 16:02:10
Перевод: дублированный, многоголосый, одноголосый

Качество: BDRip-HEVC 1080p
Кодек: HEVC (x265)
Видео: 1920x1080 (16:9), 5491-9117 Кбит/сек, HEVC (Main10@L.4.1@High) 10 бит
Звук:
Аудио1: AC3, 6 ch, 448 Kbps - Русский, Дублированный (Ren-TV)
Аудио2: AC3, 6 ch, 384 Kbps - Русский, Одногоголосый (Novafilm)
Аудио3: AC3, 6 ch, 448 Kbps - Русский, Многоголосый (Ren-TV)
Аудио4: AC3, 6 ch, 640 Kbps - English, Original

Субтитры: Русские полные (SRT), English full (SRT)

Навигация по главам: Нет



x265 [info]: frame I: 264, Avg QP:18.07 kb/s: 15751.66
x265 [info]: frame P: 12463, Avg QP:19.34 kb/s: 11750.21
x265 [info]: frame B: 49215, Avg QP:21.46 kb/s: 3994.08
x265 [info]: Weighted P-Frames: Y:5.0% UV:3.7%
x265 [info]: Weighted B-Frames: Y:4.2% UV:3.0%
x265 [info]: consecutive B-frames: 2.8% 4.3% 5.9% 33.6% 11.9% 34.5% 3.8% 1.8% 0.3% 0.3% 0.2% 0.3% 0.4%
x265 [info]: encoded 61942 frames in 73065.42s (0.85 fps), 5604.76 kb/s, Avg QP:21.02

Общее
Уникальный идентификатор : 146968663871841659250447312833131483743 (0x6E912293897A030077AA92EF68CE925F)
Полное имя : ..Prison.Break.S02E02.Otis.mkv
Формат : Matroska
Версия формата : Version 4
Размер файла : 2,26 Гбайт
Продолжительность : 43 м. 5 с.
Общий поток : 7 523 Кбит/сек
Название фильма : Prison.Break.S02E02.Otis
Дата кодирования : UTC 2020-10-07 05:00:14
Программа кодирования : mkvmerge v51.0.0 ('I Wish') 64-bit
Библиотека кодирования : libebml v1.4.0 + libmatroska v1.6.2

Видео
Идентификатор : 1
Формат : HEVC
Формат/Информация : High Efficiency Video Coding
Профиль формата : Main 10@L4.1@High
Идентификатор кодека : V_MPEGH/ISO/HEVC
Продолжительность : 43 м. 3 с.
Битрейт : 5 606 Кбит/сек
Ширина : 1 920 пикселей
Высота : 1 080 пикселей
Соотношение сторон : 16:9
Режим частоты кадров : Постоянный
Частота кадров : 23,976 (24000/1001) кадра/сек
Цветовое пространство : YUV
Субдискретизация насыщенности : 4:2:0
Битовая глубина : 10 бит
Бит/(Пиксели*Кадры) : 0.113
Размер потока : 1,69 Гбайт (74%)
Заголовок : Prison.Break.S02E02.Otis / Rip by OldGamer
Библиотека кодирования : x265 3.4+4-g3ae3d7116:[Windows][GCC 10.2.0][64 bit] 10bit
Настройки программы : cpuid=1111039 / frame-threads=3 / numa-pools=12 / wpp / no-pmode / no-pme / no-psnr / no-ssim / log-level=2 / input-csp=1 / input-res=1920x1080 / interlace=0 / total-frames=61942 / level-idc=41 / high-tier=1 / uhd-bd=0 / ref=5 / no-allow-non-conformance / no-repeat-headers / annexb / no-aud / no-hrd / info / hash=0 / no-temporal-layers / open-gop / min-keyint=23 / keyint=240 / gop-lookahead=0 / bframes=12 / b-adapt=2 / b-pyramid / bframe-bias=0 / rc-lookahead=60 / lookahead-slices=0 / scenecut=40 / hist-scenecut=0 / radl=0 / no-splice / no-intra-refresh / ctu=64 / min-cu-size=8 / rect / amp / max-tu-size=32 / tu-inter-depth=4 / tu-intra-depth=4 / limit-tu=1 / rdoq-level=2 / dynamic-rd=0.00 / no-ssim-rd / signhide / no-tskip / nr-intra=0 / nr-inter=0 / no-constrained-intra / no-strong-intra-smoothing / max-merge=5 / limit-refs=3 / no-limit-modes / me=3 / subme=7 / merange=57 / temporal-mvp / no-frame-dup / no-hme / weightp / weightb / no-analyze-src-pics / deblock=-3:-3 / no-sao / no-sao-non-deblock / rd=6 / selective-sao=0 / no-early-skip / rskip / no-fast-intra / no-tskip-fast / no-cu-lossless / b-intra / no-splitrd-skip / rdpenalty=0 / psy-rd=2.00 / psy-rdoq=1.00 / no-rd-refine / no-lossless / cbqpoffs=0 / crqpoffs=0 / rc=crf / crf=20.4 / qcomp=0.60 / qpstep=4 / stats-write=0 / stats-read=0 / vbv-maxrate=50000 / vbv-bufsize=50000 / vbv-init=0.9 / crf-max=0.0 / crf-min=0.0 / ipratio=1.40 / pbratio=1.30 / aq-mode=2 / aq-strength=0.80 / no-cutree / zone-count=0 / no-strict-cbr / qg-size=32 / no-rc-grain / qpmax=69 / qpmin=0 / no-const-vbv / sar=1 / overscan=0 / videoformat=5 / range=0 / colorprim=2 / transfer=2 / colormatrix=2 / chromaloc=0 / display-window=0 / cll=0,0 / min-luma=0 / max-luma=1023 / log2-max-poc-lsb=8 / vui-timing-info / vui-hrd-info / slices=1 / no-opt-qp-pps / no-opt-ref-list-length-pps / no-multi-pass-opt-rps / scenecut-bias=0.00 / hist-threshold=0.01 / no-opt-cu-delta-qp / no-aq-motion / no-hdr10 / no-hdr10-opt / no-dhdr10-opt / no-idr-recovery-sei / analysis-reuse-level=0 / analysis-save-reuse-level=0 / analysis-load-reuse-level=0 / scale-factor=0 / refine-intra=0 / refine-inter=0 / refine-mv=1 / refine-ctu-distortion=0 / no-limit-sao / ctu-info=0 / no-lowpass-dct / refine-analysis-type=0 / copy-pic=1 / max-ausize-factor=1.0 / no-dynamic-refine / no-single-sei / no-hevc-aq / no-svt / no-field / qp-adaptation-range=1.00 / no-scenecut-aware-qpconformance-window-offsets / right=0 / bottom=0 / decoder-max-rate=0
Язык : English
Default : Да
Forced : Нет

Аудио #1
Идентификатор : 2
Формат : AC-3
Формат/Информация : Audio Coding 3
Коммерческое название : Dolby Digital
Идентификатор кодека : A_AC3
Продолжительность : 43 м. 4 с.
Вид битрейта : Постоянный
Битрейт : 448 Кбит/сек
Каналы : 6 каналов
Channel layout : L R C LFE Ls Rs
Частота : 48,0 КГц
Частота кадров : 31,250 кадров/сек (1536 SPF)
Метод сжатия : С потерями
Размер потока : 138 Мбайт (6%)
Заголовок : Dub (Ren-TV)
Язык : Russian
Service kind : Complete Main
Default : Да
Forced : Нет

Аудио #2
Идентификатор : 3
Формат : AC-3
Формат/Информация : Audio Coding 3
Коммерческое название : Dolby Digital
Идентификатор кодека : A_AC3
Продолжительность : 43 м. 5 с.
Вид битрейта : Постоянный
Битрейт : 384 Кбит/сек
Каналы : 6 каналов
Channel layout : L R C LFE Ls Rs
Частота : 48,0 КГц
Частота кадров : 31,250 кадров/сек (1536 SPF)
Метод сжатия : С потерями
Размер потока : 118 Мбайт (5%)
Заголовок : MVO (Novafilm)
Язык : Russian
Service kind : Complete Main
Default : Нет
Forced : Нет

Аудио #3
Идентификатор : 4
Формат : AC-3
Формат/Информация : Audio Coding 3
Коммерческое название : Dolby Digital
Идентификатор кодека : A_AC3
Продолжительность : 43 м. 3 с.
Вид битрейта : Постоянный
Битрейт : 448 Кбит/сек
Каналы : 6 каналов
Channel layout : L R C LFE Ls Rs
Частота : 48,0 КГц
Частота кадров : 31,250 кадров/сек (1536 SPF)
Метод сжатия : С потерями
Размер потока : 138 Мбайт (6%)
Заголовок : MVO (Ren-TV)
Язык : Russian
Service kind : Complete Main
Default : Нет
Forced : Нет

Аудио #4
Идентификатор : 5
Формат : AC-3
Формат/Информация : Audio Coding 3
Коммерческое название : Dolby Digital
Идентификатор кодека : A_AC3
Продолжительность : 43 м. 3 с.
Вид битрейта : Постоянный
Битрейт : 640 Кбит/сек
Каналы : 6 каналов
Channel layout : L R C LFE Ls Rs
Частота : 48,0 КГц
Частота кадров : 31,250 кадров/сек (1536 SPF)
Метод сжатия : С потерями
Размер потока : 197 Мбайт (9%)
Язык : English
Service kind : Complete Main
Default : Нет
Forced : Нет

Текст #1
Идентификатор : 6
Формат : UTF-8
Идентификатор кодека : S_TEXT/UTF8
Идентификатор кодека/Информация : UTF-8 Plain Text
Продолжительность : 42 м. 15 с.
Битрейт : 96 бит/сек
Count of elements : 460
Размер потока : 30,0 Кбайт (0%)
Язык : Russian
Default : Нет
Forced : Нет

Текст #2
Идентификатор : 7
Формат : UTF-8
Идентификатор кодека : S_TEXT/UTF8
Идентификатор кодека/Информация : UTF-8 Plain Text
Продолжительность : 42 м. 16 с.
Битрейт : 54 бит/сек
Count of elements : 446
Размер потока : 16,7 Кбайт (0%)
Язык : English
Default : Нет
Forced : Нет

Название: Побег
Оригинальное название: Prison Break
Год выхода: 2007
Жанр: боевик, триллер, драма, криминал
Режиссер: Бобби Рот, Кевин Хукс, Майя Врвило
В ролях: Вентворт Миллер, Доминик Пёрселл, Амори Ноласко, Роберт Неппер, Сара Уэйн Кэллис, Уэйд Уильямс, Марк Фойерстин, Уильям Фихтнер, Пол Адельштейн, Марина Бенедикт

О фильме: В третьем сезоне Компания похищает Сару и сына Линкольна, чтобы заставить Майкла вытащить из тюрьмы некоего Джеймса Уистлера. Так Сколфилд оказывается в Соне – страшной тюрьме на территории Панамы, где сидят настоящие отбросы общества, а правила устанавливает местный авторитет. Линкольн и Сукре с большим трудом вытаскивают Майкла и Уистлера, обладающего информацией, способной навредить компании. Майкл пытается первым завладеть ценными данными, но его преследует Гретхен Морган, жестокая наёмница Компании.

Продолжительность: 09:29:01
Перевод: дублированный, многоголосый

Качество: BDRip-HEVC 1080p
Кодек: HEVC (x265)
Видео: 1920x1080 (16:9), 8861-12500 Кбит/сек, HEVC (Main10@L.4.1@High) 10 бит
Звук:
Аудио1: AC3, 6 ch, 384 Kbps - Русский, Дублированный (REN-TV)
Аудио2: AC3, 6 ch, 448 Kbps - Русский, Многоголосый (С.Р.И.)
Аудио3: AC3, 6 ch, 384 Kbps - Русский, Многоголосый (NovaFILM)
Аудио4: AC3, 6 ch, 640 Kbps - English, Original

Субтитры: Русские полные (SRT), English full (SRT)

Навигация по главам: Нет



x265 [info]: frame I: 277, Avg QP:18.00 kb/s: 19820.73
x265 [info]: frame P: 12762, Avg QP:19.35 kb/s: 16002.63
x265 [info]: frame B: 50272, Avg QP:21.39 kb/s: 8719.75
x265 [info]: Weighted P-Frames: Y:4.2% UV:3.5%
x265 [info]: Weighted B-Frames: Y:5.5% UV:4.3%
x265 [info]: consecutive B-frames: 3.1% 4.3% 7.4% 31.2% 10.6% 37.3% 3.2% 1.5% 0.5% 0.2% 0.2% 0.2% 0.4%
x265 [info]: encoded 63311 frames in 104402.28s (0.61 fps), 10236.37 kb/s, Avg QP:20.96

Общее
Уникальный идентификатор : 281182609141297066005965967565350019258 (0xD389CCF94614AA843D2EDA117870A0BA)
Полное имя : ..Prison.Break.S03E03.Call.Waiting.mkv
Формат : Matroska
Версия формата : Version 4
Размер файла : 3,72 Гбайт
Продолжительность : 44 м. 0 с.
Общий поток : 12,1 Мбит/сек
Название фильма : Prison.Break.S03E03.Call.Waiting
Дата кодирования : UTC 2020-10-15 05:59:57
Программа кодирования : mkvmerge v51.0.0 ('I Wish') 64-bit
Библиотека кодирования : libebml v1.4.0 + libmatroska v1.6.2

Видео
Идентификатор : 1
Формат : HEVC
Формат/Информация : High Efficiency Video Coding
Профиль формата : Main 10@L4.1@High
Идентификатор кодека : V_MPEGH/ISO/HEVC
Продолжительность : 44 м. 0 с.
Битрейт : 10,2 Мбит/сек
Ширина : 1 920 пикселей
Высота : 1 080 пикселей
Соотношение сторон : 16:9
Режим частоты кадров : Постоянный
Частота кадров : 23,976 (24000/1001) кадра/сек
Цветовое пространство : YUV
Субдискретизация насыщенности : 4:2:0
Битовая глубина : 10 бит
Бит/(Пиксели*Кадры) : 0.206
Размер потока : 3,15 Гбайт (85%)
Заголовок : Prison.Break.S03E03.Call.Waiting / Rip by OldGamer
Библиотека кодирования : x265 3.4+4-g3ae3d7116:[Windows][GCC 10.2.0][64 bit] 10bit
Настройки программы : cpuid=1111039 / frame-threads=3 / numa-pools=12 / wpp / no-pmode / no-pme / no-psnr / no-ssim / log-level=2 / input-csp=1 / input-res=1920x1080 / interlace=0 / total-frames=63311 / level-idc=41 / high-tier=1 / uhd-bd=0 / ref=5 / no-allow-non-conformance / no-repeat-headers / annexb / no-aud / no-hrd / info / hash=0 / no-temporal-layers / open-gop / min-keyint=23 / keyint=240 / gop-lookahead=0 / bframes=12 / b-adapt=2 / b-pyramid / bframe-bias=0 / rc-lookahead=60 / lookahead-slices=0 / scenecut=40 / hist-scenecut=0 / radl=0 / no-splice / no-intra-refresh / ctu=64 / min-cu-size=8 / rect / amp / max-tu-size=32 / tu-inter-depth=4 / tu-intra-depth=4 / limit-tu=1 / rdoq-level=2 / dynamic-rd=0.00 / no-ssim-rd / signhide / no-tskip / nr-intra=0 / nr-inter=0 / no-constrained-intra / no-strong-intra-smoothing / max-merge=5 / limit-refs=3 / no-limit-modes / me=3 / subme=7 / merange=57 / temporal-mvp / no-frame-dup / no-hme / weightp / weightb / no-analyze-src-pics / deblock=-3:-3 / no-sao / no-sao-non-deblock / rd=6 / selective-sao=0 / no-early-skip / rskip / no-fast-intra / no-tskip-fast / no-cu-lossless / b-intra / no-splitrd-skip / rdpenalty=0 / psy-rd=2.00 / psy-rdoq=1.00 / no-rd-refine / no-lossless / cbqpoffs=0 / crqpoffs=0 / rc=crf / crf=20.2 / qcomp=0.60 / qpstep=4 / stats-write=0 / stats-read=0 / vbv-maxrate=50000 / vbv-bufsize=50000 / vbv-init=0.9 / crf-max=0.0 / crf-min=0.0 / ipratio=1.40 / pbratio=1.30 / aq-mode=2 / aq-strength=0.80 / no-cutree / zone-count=0 / no-strict-cbr / qg-size=32 / no-rc-grain / qpmax=69 / qpmin=0 / no-const-vbv / sar=1 / overscan=0 / videoformat=5 / range=0 / colorprim=2 / transfer=2 / colormatrix=2 / chromaloc=0 / display-window=0 / cll=0,0 / min-luma=0 / max-luma=1023 / log2-max-poc-lsb=8 / vui-timing-info / vui-hrd-info / slices=1 / no-opt-qp-pps / no-opt-ref-list-length-pps / no-multi-pass-opt-rps / scenecut-bias=0.00 / hist-threshold=0.01 / no-opt-cu-delta-qp / no-aq-motion / no-hdr10 / no-hdr10-opt / no-dhdr10-opt / no-idr-recovery-sei / analysis-reuse-level=0 / analysis-save-reuse-level=0 / analysis-load-reuse-level=0 / scale-factor=0 / refine-intra=0 / refine-inter=0 / refine-mv=1 / refine-ctu-distortion=0 / no-limit-sao / ctu-info=0 / no-lowpass-dct / refine-analysis-type=0 / copy-pic=1 / max-ausize-factor=1.0 / no-dynamic-refine / no-single-sei / no-hevc-aq / no-svt / no-field / qp-adaptation-range=1.00 / no-scenecut-aware-qpconformance-window-offsets / right=0 / bottom=0 / decoder-max-rate=0
Язык : English
Default : Да
Forced : Нет

Аудио #1
Идентификатор : 2
Формат : AC-3
Формат/Информация : Audio Coding 3
Коммерческое название : Dolby Digital
Идентификатор кодека : A_AC3
Продолжительность : 44 м. 0 с.
Вид битрейта : Постоянный
Битрейт : 384 Кбит/сек
Каналы : 6 каналов
Channel layout : L R C LFE Ls Rs
Частота : 48,0 КГц
Частота кадров : 31,250 кадров/сек (1536 SPF)
Метод сжатия : С потерями
Размер потока : 121 Мбайт (3%)
Заголовок : Dub (REN-TV)
Язык : Russian
Service kind : Complete Main
Default : Да
Forced : Нет

Аудио #2
Идентификатор : 3
Формат : AC-3
Формат/Информация : Audio Coding 3
Коммерческое название : Dolby Digital
Идентификатор кодека : A_AC3
Продолжительность : 44 м. 0 с.
Вид битрейта : Постоянный
Битрейт : 448 Кбит/сек
Каналы : 6 каналов
Channel layout : L R C LFE Ls Rs
Частота : 48,0 КГц
Частота кадров : 31,250 кадров/сек (1536 SPF)
Метод сжатия : С потерями
Размер потока : 141 Мбайт (4%)
Заголовок : MVO (С.Р.И.)
Язык : Russian
Service kind : Complete Main
Default : Нет
Forced : Нет

Аудио #3
Идентификатор : 4
Формат : AC-3
Формат/Информация : Audio Coding 3
Коммерческое название : Dolby Digital
Идентификатор кодека : A_AC3
Продолжительность : 44 м. 0 с.
Вид битрейта : Постоянный
Битрейт : 384 Кбит/сек
Каналы : 6 каналов
Channel layout : L R C LFE Ls Rs
Частота : 48,0 КГц
Частота кадров : 31,250 кадров/сек (1536 SPF)
Метод сжатия : С потерями
Размер потока : 121 Мбайт (3%)
Заголовок : MVO (NovaFILM)
Язык : Russian
Service kind : Complete Main
Default : Нет
Forced : Нет

Аудио #4
Идентификатор : 5
Формат : AC-3
Формат/Информация : Audio Coding 3
Коммерческое название : Dolby Digital
Идентификатор кодека : A_AC3
Продолжительность : 44 м. 0 с.
Вид битрейта : Постоянный
Битрейт : 640 Кбит/сек
Каналы : 6 каналов
Channel layout : L R C LFE Ls Rs
Частота : 48,0 КГц
Частота кадров : 31,250 кадров/сек (1536 SPF)
Метод сжатия : С потерями
Размер потока : 201 Мбайт (5%)
Язык : English
Service kind : Complete Main
Default : Нет
Forced : Нет

Текст #1
Идентификатор : 6
Формат : UTF-8
Идентификатор кодека : S_TEXT/UTF8
Идентификатор кодека/Информация : UTF-8 Plain Text
Продолжительность : 43 м. 29 с.
Битрейт : 106 бит/сек
Count of elements : 689
Размер потока : 33,9 Кбайт (0%)
Заголовок : Rus (NovaFilm&JigSaW_3)
Язык : Russian
Default : Нет
Forced : Нет

Текст #2
Идентификатор : 7
Формат : UTF-8
Идентификатор кодека : S_TEXT/UTF8
Идентификатор кодека/Информация : UTF-8 Plain Text
Продолжительность : 12 м. 5 с.
Битрейт : 2 бит/сек
Count of elements : 4
Размер потока : 237 байт (0%)
Заголовок : Rus (Исп. диалоги)
Язык : Russian
Default : Нет
Forced : Нет

Текст #3
Идентификатор : 8
Формат : UTF-8
Идентификатор кодека : S_TEXT/UTF8
Идентификатор кодека/Информация : UTF-8 Plain Text
Продолжительность : 43 м. 56 с.
Битрейт : 73 бит/сек
Count of elements : 609
Размер потока : 23,8 Кбайт (0%)
Заголовок : English
Язык : English
Default : Нет
Forced : Нет
Изображение

x265 [info]: frame I: 277, Avg QP:17.95 kb/s: 16759.77
x265 [info]: frame P: 13719, Avg QP:19.21 kb/s: 13290.14
x265 [info]: frame B: 49238, Avg QP:21.27 kb/s: 5445.36
x265 [info]: Weighted P-Frames: Y:3.0% UV:2.4%
x265 [info]: Weighted B-Frames: Y:2.9% UV:2.2%
x265 [info]: consecutive B-frames: 5.4% 7.3% 9.2% 30.2% 12.1% 31.3% 2.5% 0.9% 0.2% 0.8%
x265 [info]: encoded 63234 frames in 84028.00s (0.75 fps), 7196.90 kb/s, Avg QP:20.81

Общее
Уникальный идентификатор : 182970436452449942739561161942203607616 (0x89A6D3020E985E1978F9910F99EFAA40)
Полное имя : ..Prison.Break.S04E03.Shut.Down.mkv
Формат : Matroska
Версия формата : Version 4
Размер файла : 2,72 Гбайт
Продолжительность : 43 м. 57 с.
Общий поток : 8 864 Кбит/сек
Название фильма : Prison.Break.S04E03.Shut.Down
Дата кодирования : UTC 2020-10-24 13:25:51
Программа кодирования : mkvmerge v51.0.0 ('I Wish') 64-bit
Библиотека кодирования : libebml v1.4.0 + libmatroska v1.6.2

Видео
Идентификатор : 1
Формат : HEVC
Формат/Информация : High Efficiency Video Coding
Профиль формата : Main 10@L4.1@High
Идентификатор кодека : V_MPEGH/ISO/HEVC
Продолжительность : 43 м. 57 с.
Битрейт : 7 198 Кбит/сек
Ширина : 1 916 пикселей
Высота : 1 080 пикселей
Соотношение сторон : 16:9
Режим частоты кадров : Постоянный
Частота кадров : 23,976 (24000/1001) кадра/сек
Цветовое пространство : YUV
Субдискретизация насыщенности : 4:2:0
Битовая глубина : 10 бит
Бит/(Пиксели*Кадры) : 0.145
Размер потока : 2,21 Гбайт (81%)
Заголовок : Prison.Break.S04E03.Shut.Down / Rip by OldGamer
Библиотека кодирования : x265 3.4+4-g3ae3d7116:[Windows][GCC 10.2.0][64 bit] 10bit
Настройки программы : cpuid=1111039 / frame-threads=3 / numa-pools=12 / wpp / no-pmode / no-pme / no-psnr / no-ssim / log-level=2 / input-csp=1 / input-res=1916x1080 / interlace=0 / total-frames=63234 / level-idc=41 / high-tier=1 / uhd-bd=0 / ref=5 / no-allow-non-conformance / no-repeat-headers / annexb / no-aud / no-hrd / info / hash=0 / no-temporal-layers / open-gop / min-keyint=23 / keyint=240 / gop-lookahead=0 / bframes=9 / b-adapt=2 / b-pyramid / bframe-bias=0 / rc-lookahead=60 / lookahead-slices=0 / scenecut=40 / hist-scenecut=0 / radl=0 / no-splice / no-intra-refresh / ctu=64 / min-cu-size=8 / rect / amp / max-tu-size=32 / tu-inter-depth=4 / tu-intra-depth=4 / limit-tu=1 / rdoq-level=2 / dynamic-rd=0.00 / no-ssim-rd / signhide / no-tskip / nr-intra=0 / nr-inter=0 / no-constrained-intra / no-strong-intra-smoothing / max-merge=5 / limit-refs=3 / no-limit-modes / me=3 / subme=7 / merange=57 / temporal-mvp / no-frame-dup / no-hme / weightp / weightb / no-analyze-src-pics / deblock=-3:-3 / no-sao / no-sao-non-deblock / rd=6 / selective-sao=0 / no-early-skip / rskip / no-fast-intra / no-tskip-fast / no-cu-lossless / b-intra / no-splitrd-skip / rdpenalty=0 / psy-rd=2.00 / psy-rdoq=1.00 / no-rd-refine / no-lossless / cbqpoffs=0 / crqpoffs=0 / rc=crf / crf=20.1 / qcomp=0.60 / qpstep=4 / stats-write=0 / stats-read=0 / vbv-maxrate=50000 / vbv-bufsize=50000 / vbv-init=0.9 / crf-max=0.0 / crf-min=0.0 / ipratio=1.40 / pbratio=1.30 / aq-mode=2 / aq-strength=0.80 / no-cutree / zone-count=0 / no-strict-cbr / qg-size=32 / no-rc-grain / qpmax=69 / qpmin=0 / no-const-vbv / sar=1 / overscan=0 / videoformat=5 / range=0 / colorprim=2 / transfer=2 / colormatrix=2 / chromaloc=0 / display-window=0 / cll=0,0 / min-luma=0 / max-luma=1023 / log2-max-poc-lsb=8 / vui-timing-info / vui-hrd-info / slices=1 / no-opt-qp-pps / no-opt-ref-list-length-pps / no-multi-pass-opt-rps / scenecut-bias=0.00 / hist-threshold=0.01 / no-opt-cu-delta-qp / no-aq-motion / no-hdr10 / no-hdr10-opt / no-dhdr10-opt / no-idr-recovery-sei / analysis-reuse-level=0 / analysis-save-reuse-level=0 / analysis-load-reuse-level=0 / scale-factor=0 / refine-intra=0 / refine-inter=0 / refine-mv=1 / refine-ctu-distortion=0 / no-limit-sao / ctu-info=0 / no-lowpass-dct / refine-analysis-type=0 / copy-pic=1 / max-ausize-factor=1.0 / no-dynamic-refine / no-single-sei / no-hevc-aq / no-svt / no-field / qp-adaptation-range=1.00 / no-scenecut-aware-qpconformance-window-offsets / right=0 / bottom=0 / decoder-max-rate=0
Язык : English
Default : Да
Forced : Нет

Аудио #1
Идентификатор : 2
Формат : AC-3
Формат/Информация : Audio Coding 3
Коммерческое название : Dolby Digital
Идентификатор кодека : A_AC3
Продолжительность : 43 м. 57 с.
Вид битрейта : Постоянный
Битрейт : 192 Кбит/сек
Каналы : 2 канала
Channel layout : L R
Частота : 48,0 КГц
Частота кадров : 31,250 кадров/сек (1536 SPF)
Метод сжатия : С потерями
Размер потока : 60,4 Мбайт (2%)
Заголовок : Dub (REN-TV)
Язык : Russian
Service kind : Complete Main
Default : Да
Forced : Нет

Аудио #2
Идентификатор : 3
Формат : AC-3
Формат/Информация : Audio Coding 3
Коммерческое название : Dolby Digital
Идентификатор кодека : A_AC3
Продолжительность : 43 м. 57 с.
Вид битрейта : Постоянный
Битрейт : 448 Кбит/сек
Каналы : 6 каналов
Channel layout : L R C LFE Ls Rs
Частота : 48,0 КГц
Частота кадров : 31,250 кадров/сек (1536 SPF)
Метод сжатия : С потерями
Размер потока : 141 Мбайт (5%)
Заголовок : MVO (S.R.I.)
Язык : Russian
Service kind : Complete Main
Default : Нет
Forced : Нет

Аудио #3
Идентификатор : 4
Формат : AC-3
Формат/Информация : Audio Coding 3
Коммерческое название : Dolby Digital
Идентификатор кодека : A_AC3
Продолжительность : 43 м. 57 с.
Вид битрейта : Постоянный
Битрейт : 384 Кбит/сек
Каналы : 6 каналов
Channel layout : L R C LFE Ls Rs
Частота : 48,0 КГц
Частота кадров : 31,250 кадров/сек (1536 SPF)
Метод сжатия : С потерями
Размер потока : 121 Мбайт (4%)
Заголовок : MVO (Nova)
Язык : Russian
Service kind : Complete Main
Default : Нет
Forced : Нет

Аудио #4
Идентификатор : 5
Формат : AC-3
Формат/Информация : Audio Coding 3
Коммерческое название : Dolby Digital
Идентификатор кодека : A_AC3
Продолжительность : 43 м. 57 с.
Вид битрейта : Постоянный
Битрейт : 640 Кбит/сек
Каналы : 6 каналов
Channel layout : L R C LFE Ls Rs
Частота : 48,0 КГц
Частота кадров : 31,250 кадров/сек (1536 SPF)
Метод сжатия : С потерями
Размер потока : 201 Мбайт (7%)
Язык : English
Service kind : Complete Main
Default : Нет
Forced : Нет

Текст #1
Идентификатор : 6
Формат : UTF-8
Идентификатор кодека : S_TEXT/UTF8
Идентификатор кодека/Информация : UTF-8 Plain Text
Продолжительность : 43 м. 14 с.
Битрейт : 122 бит/сек
Count of elements : 805
Размер потока : 38,9 Кбайт (0%)
Язык : Russian
Default : Нет
Forced : Нет

Текст #2
Идентификатор : 7
Формат : UTF-8
Идентификатор кодека : S_TEXT/UTF8
Идентификатор кодека/Информация : UTF-8 Plain Text
Продолжительность : 43 м. 53 с.
Битрейт : 73 бит/сек
Count of elements : 581
Размер потока : 23,7 Кбайт (0%)
Язык : English
Default : Нет
Forced : Нет

Название: Побег из тюрьмы: Финальный побег
Оригинальное название: Prison Break: The Final Break
Год выхода: 2009
Жанр: боевик, триллер, драма, криминал
Режиссёр: Кевин Хукс, Брэд Тернер
В ролях: Доминик Пёрселл, Вентворт Миллер, Амори Ноласко, Роберт Неппер, Джоди Лин О’Киф, Сара Уэйн Кэллис, Уильям Фихтнер, Леон Рассом, Ким Коутс, Барбара Ив Харрис

О фильме: Сару арестовывают за убийство матери Майкла и отправляют в тюрьму, и она все ещё носит его ребёнка под сердцем. На сей раз всё меняется местами: тюремный врач становится заключённым, а Майкл остаётся на свободе. В фильме задействована большая часть героев сериала: Майкл, Линкольн, Сара, Сукрэ, Бэгвел, Махоун и... Грэтхен. Каков же будет исход и финальный побег?.. Всё вновь зависит от гениального инженера-строителя.

Продолжительность: 01:29:06
Перевод: дублированный, многоголосый

Качество: BDRip-HEVC 1080p
Кодек: HEVC (x265)
Видео: 1918x1080 (16:9), 6634 Кбит/сек, HEVC (Main10@L.4.1@High) 10 бит
Звук:
Аудио1: AC3, 2 ch, 192 Kbps - Русский, Дублированный (REN-TV)
Аудио2: AC3, 6 ch, 384 Kbps - Русский, Многоголосый (NovaFilm)
Аудио3: AC3, 6 ch, 384 Kbps - Русский, Многоголосый (S.R.I.)
Аудио4: AC3, 6 ch, 640 Kbps - English, Original

Субтитры: Русские полные (SRT), English full (SRT)

Навигация по главам: Нет




x265 [info]: frame I: 538, Avg QP:17.54 kb/s: 15171.96
x265 [info]: frame P: 25495, Avg QP:18.78 kb/s: 12809.95
x265 [info]: frame B: 102151, Avg QP:20.93 kb/s: 5046.69
x265 [info]: Weighted P-Frames: Y:4.0% UV:3.2%
x265 [info]: Weighted B-Frames: Y:4.6% UV:3.6%
x265 [info]: consecutive B-frames: 2.0% 4.3% 5.8% 32.7% 10.6% 37.7% 3.9% 2.0% 0.4% 0.2% 0.1% 0.1% 0.1% 0.2%
x265 [info]: encoded 128184 frames in 169645.94s (0.76 fps), 6633.25 kb/s, Avg QP:20.49

Общее
Уникальный идентификатор : 214646801468016868598065913871609918435 (0xA17B7861BDDE50363EBC81A1712C73E3)
Полное имя : ..Побег.из.тюрьмы.Финальный.побег.Prison.Break.The.Final.Break.2009.BDRip-HEVC.1080p.mkv
Формат : Matroska
Версия формата : Version 4
Размер файла : 5,13 Гбайт
Продолжительность : 1 ч. 29 м.
Общий поток : 8 236 Кбит/сек
Название фильма : Побег.из.тюрьмы.Финальный.побег.Prison.Break.The.Final.Break.2009.BDRip-HEVC.1080p
Дата кодирования : UTC 2020-11-13 06:04:19
Программа кодирования : mkvmerge v51.0.0 ('I Wish') 64-bit
Библиотека кодирования : libebml v1.4.0 + libmatroska v1.6.2

Видео
Идентификатор : 1
Формат : HEVC
Формат/Информация : High Efficiency Video Coding
Профиль формата : Main 10@L4.1@High
Идентификатор кодека : V_MPEGH/ISO/HEVC
Продолжительность : 1 ч. 29 м.
Битрейт : 6 634 Кбит/сек
Ширина : 1 918 пикселей
Высота : 1 080 пикселей
Соотношение сторон : 16:9
Режим частоты кадров : Постоянный
Частота кадров : 23,976 (24000/1001) кадра/сек
Цветовое пространство : YUV
Субдискретизация насыщенности : 4:2:0
Битовая глубина : 10 бит
Бит/(Пиксели*Кадры) : 0.134
Размер потока : 4,13 Гбайт (81%)
Заголовок : Prison Break: The Final Break / Rip by OldGamer
Библиотека кодирования : x265 3.4+4-g3ae3d7116:[Windows][GCC 10.2.0][64 bit] 10bit
Настройки программы : cpuid=1111039 / frame-threads=3 / numa-pools=12 / wpp / no-pmode / no-pme / no-psnr / no-ssim / log-level=2 / input-csp=1 / input-res=1918x1080 / interlace=0 / total-frames=128184 / level-idc=41 / high-tier=1 / uhd-bd=0 / ref=5 / no-allow-non-conformance / no-repeat-headers / annexb / no-aud / no-hrd / info / hash=0 / no-temporal-layers / open-gop / min-keyint=23 / keyint=240 / gop-lookahead=0 / bframes=13 / b-adapt=2 / b-pyramid / bframe-bias=0 / rc-lookahead=60 / lookahead-slices=0 / scenecut=40 / hist-scenecut=0 / radl=0 / no-splice / no-intra-refresh / ctu=64 / min-cu-size=8 / rect / amp / max-tu-size=32 / tu-inter-depth=4 / tu-intra-depth=4 / limit-tu=1 / rdoq-level=2 / dynamic-rd=0.00 / no-ssim-rd / signhide / no-tskip / nr-intra=0 / nr-inter=0 / no-constrained-intra / no-strong-intra-smoothing / max-merge=5 / limit-refs=3 / no-limit-modes / me=3 / subme=7 / merange=57 / temporal-mvp / no-frame-dup / no-hme / weightp / weightb / no-analyze-src-pics / deblock=-3:-3 / no-sao / no-sao-non-deblock / rd=6 / selective-sao=0 / no-early-skip / rskip / no-fast-intra / no-tskip-fast / no-cu-lossless / b-intra / no-splitrd-skip / rdpenalty=0 / psy-rd=2.00 / psy-rdoq=1.00 / no-rd-refine / no-lossless / cbqpoffs=0 / crqpoffs=0 / rc=crf / crf=20.0 / qcomp=0.60 / qpstep=4 / stats-write=0 / stats-read=0 / vbv-maxrate=50000 / vbv-bufsize=50000 / vbv-init=0.9 / crf-max=0.0 / crf-min=0.0 / ipratio=1.40 / pbratio=1.30 / aq-mode=2 / aq-strength=0.80 / no-cutree / zone-count=1 / zones: / start-frame=126960 / end-frame=128169 / qp=36 / no-strict-cbr / qg-size=32 / no-rc-grain / qpmax=69 / qpmin=0 / no-const-vbv / sar=1 / overscan=0 / videoformat=5 / range=0 / colorprim=2 / transfer=2 / colormatrix=2 / chromaloc=0 / display-window=0 / cll=0,0 / min-luma=0 / max-luma=1023 / log2-max-poc-lsb=8 / vui-timing-info / vui-hrd-info / slices=1 / no-opt-qp-pps / no-opt-ref-list-length-pps / no-multi-pass-opt-rps / scenecut-bias=0.00 / hist-threshold=0.01 / no-opt-cu-delta-qp / no-aq-motion / no-hdr10 / no-hdr10-opt / no-dhdr10-opt / no-idr-recovery-sei / analysis-reuse-level=0 / analysis-save-reuse-level=0 / analysis-load-reuse-level=0 / scale-factor=0 / refine-intra=0 / refine-inter=0 / refine-mv=1 / refine-ctu-distortion=0 / no-limit-sao / ctu-info=0 / no-lowpass-dct / refine-analysis-type=0 / copy-pic=1 / max-ausize-factor=1.0 / no-dynamic-refine / no-single-sei / no-hevc-aq / no-svt / no-field / qp-adaptation-range=1.00 / no-scenecut-aware-qpconformance-window-offsets / right=0 / bottom=0 / decoder-max-rate=0
Язык : English
Default : Да
Forced : Нет

Аудио #1
Идентификатор : 2
Формат : AC-3
Формат/Информация : Audio Coding 3
Коммерческое название : Dolby Digital
Идентификатор кодека : A_AC3
Продолжительность : 1 ч. 29 м.
Вид битрейта : Постоянный
Битрейт : 192 Кбит/сек
Каналы : 2 канала
Channel layout : L R
Частота : 48,0 КГц
Частота кадров : 31,250 кадров/сек (1536 SPF)
Метод сжатия : С потерями
Размер потока : 122 Мбайт (2%)
Заголовок : Dub (REN-TV)
Язык : Russian
Service kind : Complete Main
Default : Да
Forced : Нет

Аудио #2
Идентификатор : 3
Формат : AC-3
Формат/Информация : Audio Coding 3
Коммерческое название : Dolby Digital
Идентификатор кодека : A_AC3
Продолжительность : 1 ч. 29 м.
Вид битрейта : Постоянный
Битрейт : 384 Кбит/сек
Каналы : 6 каналов
Channel layout : L R C LFE Ls Rs
Частота : 48,0 КГц
Частота кадров : 31,250 кадров/сек (1536 SPF)
Метод сжатия : С потерями
Размер потока : 245 Мбайт (5%)
Заголовок : MVO (NovaFilm)
Язык : Russian
Service kind : Complete Main
Default : Нет
Forced : Нет

Аудио #3
Идентификатор : 4
Формат : AC-3
Формат/Информация : Audio Coding 3
Коммерческое название : Dolby Digital
Идентификатор кодека : A_AC3
Продолжительность : 1 ч. 29 м.
Вид битрейта : Постоянный
Битрейт : 384 Кбит/сек
Каналы : 6 каналов
Channel layout : L R C LFE Ls Rs
Частота : 48,0 КГц
Частота кадров : 31,250 кадров/сек (1536 SPF)
Метод сжатия : С потерями
Размер потока : 245 Мбайт (5%)
Заголовок : MVO (S.R.I.)
Язык : Russian
Service kind : Complete Main
Default : Нет
Forced : Нет

Аудио #4
Идентификатор : 5
Формат : AC-3
Формат/Информация : Audio Coding 3
Коммерческое название : Dolby Digital
Идентификатор кодека : A_AC3
Продолжительность : 1 ч. 29 м.
Вид битрейта : Постоянный
Битрейт : 640 Кбит/сек
Каналы : 6 каналов
Channel layout : L R C LFE Ls Rs
Частота : 48,0 КГц
Частота кадров : 31,250 кадров/сек (1536 SPF)
Метод сжатия : С потерями
Размер потока : 408 Мбайт (8%)
Язык : English
Service kind : Complete Main
Default : Нет
Forced : Нет

Текст #1
Идентификатор : 6
Формат : UTF-8
Идентификатор кодека : S_TEXT/UTF8
Идентификатор кодека/Информация : UTF-8 Plain Text
Продолжительность : 1 ч. 11 м.
Битрейт : 1 бит/сек
Count of elements : 11
Размер потока : 831 байт (0%)
Язык : Russian
Default : Нет
Forced : Нет

Текст #2
Идентификатор : 7
Формат : UTF-8
Идентификатор кодека : S_TEXT/UTF8
Идентификатор кодека/Информация : UTF-8 Plain Text
Продолжительность : 1 ч. 27 м.
Битрейт : 63 бит/сек
Count of elements : 1160
Размер потока : 40,7 Кбайт (0%)
Язык : English
Default : Нет
Forced : Нет

Название: Побег: Продолжение
Оригинальное название: Prison Break: Sequel
Год выхода: 2017
Жанр: боевик, триллер, драма, криминал
Режиссер: Нельсон МакКормик
В ролях: Доминик Пёрселл, Вентворт Миллер, Амори Ноласко, Роберт Неппер, Сара Уэйн Кэллис, Рокмонд Данбар, Марина Бенедикт, Кристиан Майкл Купер, Марк Фойерстин, Стив Музакис, Эмин Эль Гамин, Кертис Льюм, Бобби Надери, Пол Адельштейн

О фильме: Линкольн и Сара объединяются после того, как выяснилось, что Майкл все еще жив и находится в йеменской тюрьме. Майкл страдает амнезией, поэтому Сара и Линкольн не знали, что он жив, пока Ти-Бэг не принёс фотографию Майкла, сделанную в тюрьме, где находится Скофилд. Сара и Линкольн планируют масштабный побег с помощью друзей.

Продолжительность: 06:33:40
Перевод: многоголосый

Качество: BDRip-HEVC 1080p
Кодек: HEVC (x265)
Видео: 1920x1080 (16:9), 4360-7159 Кбит/сек, HEVC (Main10@L.4.1@High) 10 бит
Звук:
Аудио1: AC3, 6 ch, 384 Kbps - Русский, Многоголосый
Аудио2: AC3, 6 ch, 640 Kbps - English, Original

Субтитры: Русские полные (SRT), English full (SRT)

Навигация по главам: Есть



x265 [info]: frame I: 272, Avg QP:18.04 kb/s: 13692.87
x265 [info]: frame P: 12728, Avg QP:19.44 kb/s: 9536.78
x265 [info]: frame B: 49975, Avg QP:21.71 kb/s: 2989.23
x265 [info]: Weighted P-Frames: Y:6.8% UV:5.9%
x265 [info]: Weighted B-Frames: Y:5.7% UV:4.3%
x265 [info]: consecutive B-frames: 6.2% 6.1% 7.1% 41.9% 5.7% 10.5% 2.4% 17.5% 0.7% 0.3% 0.2% 1.1% 0.1% 0.2%
x265 [info]: encoded 62975 frames in 65954.80s (0.95 fps), 4358.80 kb/s, Avg QP:21.24

Общее
Уникальный идентификатор : 241693947667424485034157868883251801240 (0xB5D48FA57E6B999344092A9493B7AC98)
Полное имя : ..Prison.Break.S05E02.Kaniel.Outis.mkv
Формат : Matroska
Версия формата : Version 4
Размер файла : 1,65 Гбайт
Продолжительность : 43 м. 46 с.
Общий поток : 5 385 Кбит/сек
Название фильма : Prison.Break.S05E02.Kaniel.Outis
Дата кодирования : UTC 2020-11-14 13:02:26
Программа кодирования : mkvmerge v51.0.0 ('I Wish') 64-bit
Библиотека кодирования : libebml v1.4.0 + libmatroska v1.6.2

Видео
Идентификатор : 1
Формат : HEVC
Формат/Информация : High Efficiency Video Coding
Профиль формата : Main 10@L4.1@High
Идентификатор кодека : V_MPEGH/ISO/HEVC
Продолжительность : 43 м. 46 с.
Битрейт : 4 360 Кбит/сек
Ширина : 1 920 пикселей
Высота : 1 080 пикселей
Соотношение сторон : 16:9
Режим частоты кадров : Постоянный
Частота кадров : 23,976 (24000/1001) кадра/сек
Цветовое пространство : YUV
Субдискретизация насыщенности : 4:2:0
Битовая глубина : 10 бит
Бит/(Пиксели*Кадры) : 0.088
Размер потока : 1,33 Гбайт (81%)
Заголовок : Prison.Break.S05E02.Kaniel.Outis / Rip by OldGamer
Библиотека кодирования : x265 3.4+4-g3ae3d7116:[Windows][GCC 10.2.0][64 bit] 10bit
Настройки программы : cpuid=1111039 / frame-threads=3 / numa-pools=12 / wpp / no-pmode / no-pme / no-psnr / no-ssim / log-level=2 / input-csp=1 / input-res=1920x1080 / interlace=0 / total-frames=62975 / level-idc=41 / high-tier=1 / uhd-bd=0 / ref=5 / no-allow-non-conformance / no-repeat-headers / annexb / no-aud / no-hrd / info / hash=0 / no-temporal-layers / open-gop / min-keyint=23 / keyint=240 / gop-lookahead=0 / bframes=13 / b-adapt=2 / b-pyramid / bframe-bias=0 / rc-lookahead=60 / lookahead-slices=0 / scenecut=40 / hist-scenecut=0 / radl=0 / no-splice / no-intra-refresh / ctu=64 / min-cu-size=8 / rect / amp / max-tu-size=32 / tu-inter-depth=4 / tu-intra-depth=4 / limit-tu=1 / rdoq-level=2 / dynamic-rd=0.00 / no-ssim-rd / signhide / no-tskip / nr-intra=0 / nr-inter=0 / no-constrained-intra / no-strong-intra-smoothing / max-merge=5 / limit-refs=3 / no-limit-modes / me=3 / subme=7 / merange=57 / temporal-mvp / no-frame-dup / no-hme / weightp / weightb / no-analyze-src-pics / deblock=-3:-3 / no-sao / no-sao-non-deblock / rd=6 / selective-sao=0 / no-early-skip / rskip / no-fast-intra / no-tskip-fast / no-cu-lossless / b-intra / no-splitrd-skip / rdpenalty=0 / psy-rd=2.00 / psy-rdoq=1.00 / no-rd-refine / no-lossless / cbqpoffs=0 / crqpoffs=0 / rc=crf / crf=21.0 / qcomp=0.60 / qpstep=4 / stats-write=0 / stats-read=0 / vbv-maxrate=50000 / vbv-bufsize=50000 / vbv-init=0.9 / crf-max=0.0 / crf-min=0.0 / ipratio=1.40 / pbratio=1.30 / aq-mode=2 / aq-strength=0.80 / no-cutree / zone-count=0 / no-strict-cbr / qg-size=32 / no-rc-grain / qpmax=69 / qpmin=0 / no-const-vbv / sar=1 / overscan=0 / videoformat=5 / range=0 / colorprim=2 / transfer=2 / colormatrix=2 / chromaloc=0 / display-window=0 / cll=0,0 / min-luma=0 / max-luma=1023 / log2-max-poc-lsb=8 / vui-timing-info / vui-hrd-info / slices=1 / no-opt-qp-pps / no-opt-ref-list-length-pps / no-multi-pass-opt-rps / scenecut-bias=0.00 / hist-threshold=0.01 / no-opt-cu-delta-qp / no-aq-motion / no-hdr10 / no-hdr10-opt / no-dhdr10-opt / no-idr-recovery-sei / analysis-reuse-level=0 / analysis-save-reuse-level=0 / analysis-load-reuse-level=0 / scale-factor=0 / refine-intra=0 / refine-inter=0 / refine-mv=1 / refine-ctu-distortion=0 / no-limit-sao / ctu-info=0 / no-lowpass-dct / refine-analysis-type=0 / copy-pic=1 / max-ausize-factor=1.0 / no-dynamic-refine / no-single-sei / no-hevc-aq / no-svt / no-field / qp-adaptation-range=1.00 / no-scenecut-aware-qpconformance-window-offsets / right=0 / bottom=0 / decoder-max-rate=0
Язык : English
Default : Да
Forced : Нет

Аудио #1
Идентификатор : 2
Формат : AC-3
Формат/Информация : Audio Coding 3
Коммерческое название : Dolby Digital
Идентификатор кодека : A_AC3
Продолжительность : 43 м. 45 с.
Вид битрейта : Постоянный
Битрейт : 384 Кбит/сек
Каналы : 6 каналов
Channel layout : L R C LFE Ls Rs
Частота : 48,0 КГц
Частота кадров : 31,250 кадров/сек (1536 SPF)
Метод сжатия : С потерями
Задержка видео : 1 с. 0 мс.
Размер потока : 120 Мбайт (7%)
Язык : Russian
Service kind : Complete Main
Default : Да
Forced : Нет

Аудио #2
Идентификатор : 3
Формат : AC-3
Формат/Информация : Audio Coding 3
Коммерческое название : Dolby Digital
Идентификатор кодека : A_AC3
Продолжительность : 43 м. 46 с.
Вид битрейта : Постоянный
Битрейт : 640 Кбит/сек
Каналы : 6 каналов
Channel layout : L R C LFE Ls Rs
Частота : 48,0 КГц
Частота кадров : 31,250 кадров/сек (1536 SPF)
Метод сжатия : С потерями
Размер потока : 200 Мбайт (12%)
Язык : English
Service kind : Complete Main
Default : Нет
Forced : Нет

Текст
Идентификатор : 4
Формат : UTF-8
Идентификатор кодека : S_TEXT/UTF8
Идентификатор кодека/Информация : UTF-8 Plain Text
Продолжительность : 42 м. 48 с.
Битрейт : 70 бит/сек
Count of elements : 759
Размер потока : 22,0 Кбайт (0%)
Язык : English
Default : Нет
Forced : Нет

Меню
00:00:00.000 : :Chapter 01
00:00:54.054 : :Chapter 02
00:06:20.171 : :Chapter 03
00:11:39.657 : :Chapter 04
00:18:36.990 : :Chapter 05
00:24:36.933 : :Chapter 06
00:33:51.612 : :Chapter 07
00:43:09.712 : :Chapter 08




У вас нет необходимых прав для просмотра вложений в этом сообщении.

Кто сейчас на конференции

Сейчас этот форум просматривают: нет зарегистрированных пользователей и 1 гость