Королевские каникулы / Trouble (2019) WEB-DLRip-AVC от OlLanDGroup | iTunes

Торрент [ Статус: Новый ] Скачать Сидеров Личеров Размер
atorrent.space.t482693 [disstr.ru].torrent
20 2 744.02 МБ
K15
Администратор
Сообщения: 85
Зарегистрирован: 16 сен 2019, 20:47

Королевские каникулы / Trouble (2019) WEB-DLRip-AVC от OlLanDGroup | iTunes

Сообщение K15 » 17 дек 2019, 16:19

Информация
Название: Королевские каникулы
Оригинальное название: Trouble
Год выхода: 2019
Жанр: Мультфильм, комедия, семейный
Режиссер: Кевин Джонсон
В ролях: Биг Шон, Памела Адлон, Люси Хейл, Марисса Джэрет Винокур, Джоэл МакХэйл, Уилмер Вальдеррама, Сет Роллинз, Ди Брэдли Бейкер, Кевин Чэмберлин, Лудо Лефевр

Описание: Наследник миллионного состояния и кучки неблагодарных родственников, его псиятельство Принц вышел из зоны комфорта и оказался на улице. Теперь он мечтает вернуться домой. Для этого ему нужно найти новых друзей, избавиться от назойливых белок и сбросить с хвоста матерого охотника. Королевские каникулы начинаются.



Страна: Канада, США, Каймановы острова
Студия: 3QU Media, Cinesite Animation, Storyoscopic Films, Vanguard Animation, WV Enterprises
Продолжительность: 01:27:27
Перевод: Дублированный | iTunes

Файл
Формат: MKV
Качество: WEB-DLRip-AVC
Источник: |Trouble.2019.720p.WEB-DL.Rus.TeamHD|
Видео: 720x406 (16:9), 24 fps, x264 ~1118 kbps avg, 0.159 bit/pixel
Звук: 48 kHz, HE-AAC, 2 ch, ~72 kbps avg | RUS
Субтитры: Нет
General
Unique ID : 14811403590209927817869543457858027499 (0xB249293E677F61DA6A20DB536E87FEB)
Complete name : C:UsersSkandarVideosTrouble.2019.WEB-DLRip(AVC).745Mb.OlLanDGroup.mkv
Format : Matroska
Format version : Version 4
File size : 744 MiB
Duration : 1 h 27 min
Overall bit rate : 1 190 kb/s
Movie name : Trouble.2019.WEB-DLRip(AVC).745Mb.OlLanDGroup#Skandar#
Encoded date : UTC 2019-12-16 08:52:30
Writing application : mkvmerge v31.0.0 ('Dolores In A Shoestand') 64-bit
Writing library : libebml v1.3.6 + libmatroska v1.4.9

Video
ID : 1
Format : AVC
Format/Info : Advanced Video Codec
Format profile : High@L4.1
Format settings : CABAC / 10 Ref Frames
Format settings, CABAC : Yes
Format settings, ReFrames : 10 frames
Codec ID : V_MPEG4/ISO/AVC
Duration : 1 h 27 min
Bit rate : 1 118 kb/s
Width : 720 pixels
Height : 406 pixels
Display aspect ratio : 16:9
Frame rate mode : Constant
Frame rate : 24.000 FPS
Color space : YUV
Chroma subsampling : 4:2:0
Bit depth : 8 bits
Scan type : Progressive
Bits/(Pixel*Frame) : 0.159
Stream size : 698 MiB (94%)
Title : Trouble.2019.WEB-DLRip(AVC).745Mb.OlLanDGroup#Skandar#
Writing library : x264 core 146 r2538 121396c
Encoding settings : cabac=1 / ref=10 / deblock=1:-3:-3 / analyse=0x3:0x133 / me=umh / subme=11 / psy=1 / psy_rd=0.97:0.05 / mixed_ref=1 / me_range=48 / chroma_me=1 / trellis=2 / 8x8dct=1 / cqm=0 / deadzone=21,11 / fast_pskip=0 / chroma_qp_offset=-3 / threads=6 / lookahead_threads=1 / sliced_threads=0 / nr=0 / decimate=0 / interlaced=0 / bluray_compat=0 / constrained_intra=0 / bframes=11 / b_pyramid=2 / b_adapt=2 / b_bias=0 / direct=3 / weightb=1 / open_gop=0 / weightp=2 / keyint=240 / keyint_min=23 / scenecut=40 / intra_refresh=0 / rc_lookahead=40 / rc=2pass / mbtree=0 / bitrate=1118 / ratetol=1.0 / qcomp=0.60 / qpmin=0 / qpmax=69 / qpstep=4 / cplxblur=20.0 / qblur=0.5 / vbv_maxrate=50000 / vbv_bufsize=62500 / nal_hrd=none / filler=0 / ip_ratio=1.40 / pb_ratio=1.30 / aq=1:1.00
Language : English
Default : Yes
Forced : No

Audio
ID : 2
Format : AAC LC SBR
Format/Info : Advanced Audio Codec Low Complexity with Spectral Band Replication
Commercial name : HE-AAC
Format settings : Explicit
Codec ID : A_AAC-2
Duration : 1 h 27 min
Bit rate : 72.0 kb/s
Channel(s) : 2 channels
Channel layout : L R
Sampling rate : 48.0 kHz
Frame rate : 23.438 FPS (2048 SPF)
Compression mode : Lossy
Delay relative to video : 31 ms
Stream size : 45.0 MiB (6%)
Title : DUB [iTunes Russia]
Language : Russian
Default : Yes
Forced : No

Menu
00:00:00.000 : en:Глава 1
00:08:05.541 : en:Глава 2
00:16:41.166 : en:Глава 3
00:20:16.499 : en:Глава 4
00:33:09.915 : en:Глава 5
00:41:16.498 : en:Глава 6
00:49:32.081 : en:Глава 7
00:57:37.622 : en:Глава 8
01:05:45.497 : en:Глава 9
01:14:08.413 : en:Глава 10
Релиз от:
У вас нет необходимых прав для просмотра вложений в этом сообщении.


Ответить

Кто сейчас на конференции

Сейчас этот форум просматривают: нет зарегистрированных пользователей и 1 гость