Форсаж / The Fast and the Furious (2001) BDRemux 2160p от MediaClub | 4K | HDR

Раздача видео файлов
Ответить
Торрент Сидеров Личеров Размер
[disstr.ru]_t940.torrent
1 0 55.89 ГБ
K15
Администратор
Сообщения: 54
Зарегистрирован: 16 сен 2019, 20:47

Форсаж / The Fast and the Furious (2001) BDRemux 2160p от MediaClub | 4K | HDR

Сообщение K15 » 21 дек 2019, 16:20

Информация о фильме
Название: Форсаж
Оригинальное название: The Fast and the Furious
Год выхода: 2001
Жанр: Боевик, триллер, криминал
Режиссер: Роб Коэн
В ролях: Пол Уокер, Вин Дизель, Мишель Родригес, Джордана Брюстер, Рик Юн, Чад Линдберг, Джонни Стронг, Мэтт Шульце, Тед Левайн, Джа Рул, Вито Руджинис, Том Бэрри, Стэнтон Рутледж, Ноэль Гульеми, Р.Дж. Де Вера, Бо Холден, Регги Ли, Дэвид Дуглас, Питер Нэви Туясосопо, Нил Х. Мориц, Дория Ансельмо, Гленн К. Ота, Майк Уайт, Дэлфин Пасифик, Моника Тамайо, Меган Бэйкер, Тэмми Моника Гегамиан

О фильме: Его зовут Брайан, и он — фанатик турбин и нитроускорителей. Его цель — быть принятым в автобанду легендарного Доминика Торетто, чемпиона опасных и незаконных уличных гонок. Но это лишь часть правды… Брайан также полицейский, имеющий задание войти в доверие к Торетто, подозреваемому в причастности к дерзким грабежам трейлеров, совершенным прямо «с колес». Но чем больше доверяет нахальному новичку харизматичный Доминик, тем больше проникается герой идеалами «ангелов дорог». И тем меньше ему хочется выполнять свою миссию. И вот, наступает момент, когда Брайану придется выбирать между дружбой и долгом. И выбирать на скорости в 200 километров в час…



Страна: США, Германия
Студия: Mediastream Film GmbH & Co. Productions KG, Original Film, Universal Pictures
Продолжительность: 01:46:57
Перевод: Дублированный, профессиональный многоголосый, профессиональный двухголосый, авторский

Файл
Кодек: H.265
Качество: BDRemux 2160p
Видео: HEVC HDR, 64.0 Mбит/с, 3840x2160, 23.976 кадр/с
Аудио 1: Русский: 48 kHz, DTS, 5.1, 768 kbps |DVO, Blu-ray CEE|
Аудио 2: Русский: 48 kHz, AC3, 2.0, 192 kbps |Дубляж, Ист-Вест|
Аудио 3: Русский: 48 kHz, AC3, 5.1, 384 kbps |Многоголосый закадровый|
Аудио 4: Русский: 48 kHz, AC3, 2.0, 192 kbps |Двухголосый закадровый, Премьер Видео Фильм|
Аудио 5: Русский: 48 kHz, DTS, 5.1, 1510 kbps |Двухголосый закадровый, П. Гланц и И. Королёва|
Аудио 6: Русский: 48 kHz, DTS, 5.1, 1509 kbps |Одноголосый закадровый, А. Гаврилов|
Аудио 7: Русский: 48 kHz, DTS, 5.1, 755 kbps |Одноголосый закадровый, Ю. Живов|
Аудио 8: Русский: 48 kHz, DTS, 5.1, 755 kbps |Одноголосый закадровый, С. Визгунов|
Аудио 9: Русский: 48 kHz, AC3, 5.1, 448 kbps |Одноголосый закадровый, Doctor_Joker|
Аудио 10: Украинский: 48 kHz, AC3, 2.0, 192 kbps |Многоголосый закадровый, Так Треба Продакшн
Аудио 11: Украинский: 48 kHz, AC3, 2.0, 192 kbps |Многоголосый закадровый, ТВ+
Аудио 12: Английский: 48 kHz, DTS-HD MA, 7.1, 4017 kbps
Субтитры: Русские, английские
Семпл
General
Unique ID : 330068470823108079152653652136932749694 (0xF850E00ADADBAF01EFCA154A1F4D317E)
Complete name : C:UsersPublicVideosSample VideosFilmyThe.Fast.and.the.Furious.2001.BDRemux.2160p.HDR.MediaClub.mkv
Format : Matroska
Format version : Version 4
File size : 55.9 GiB
Duration : 1 h 46 min
Overall bit rate mode : Variable
Overall bit rate : 74.8 Mb/s
Encoded date : UTC 2018-09-29 17:35:53
Writing application : mkvmerge v25.0.0 ('Prog Noir') 64-bit
Writing library : libebml v1.3.6 + libmatroska v1.4.9
Cover : Yes
Attachments : cover.jpg

Video
ID : 1
Format : HEVC
Format/Info : High Efficiency Video Coding
Commercial name : HDR10
Format profile : Main 10@L5.1@High
Codec ID : V_MPEGH/ISO/HEVC
Duration : 1 h 46 min
Bit rate : 64.0 Mb/s
Width : 3 840 pixels
Height : 2 160 pixels
Display aspect ratio : 16:9
Frame rate mode : Constant
Frame rate : 23.976 (24000/1001) FPS
Color space : YUV
Chroma subsampling : 4:2:0 (Type 2)
Bit depth : 10 bits
Bits/(Pixel*Frame) : 0.322
Stream size : 47.7 GiB (85%)
Title : BDRemux.2160p.HDR by Silverok
Default : Yes
Forced : No
Color range : Limited
Color primaries : BT.2020
Transfer characteristics : PQ
Matrix coefficients : BT.2020 non-constant
Mastering display color primaries : Display P3
Mastering display luminance : min: 0.0050 cd/m2, max: 1000 cd/m2
Maximum Content Light Level : 1000 cd/m2
Maximum Frame-Average Light Level : 221 cd/m2

Audio #1
ID : 2
Format : DTS
Format/Info : Digital Theater Systems
Codec ID : A_DTS
Duration : 1 h 46 min
Bit rate mode : Constant
Bit rate : 768 kb/s
Channel(s) : 6 channels
Channel layout : C L R Ls Rs LFE
Sampling rate : 48.0 kHz
Frame rate : 93.750 FPS (512 SPF)
Bit depth : 24 bits
Compression mode : Lossy
Stream size : 587 MiB (1%)
Title : Профессиональный (двухголосый закадровый) Blu-ray CEE
Language : Russian
Default : Yes
Forced : No

Audio #2
ID : 3
Format : AC-3
Format/Info : Audio Coding 3
Commercial name : Dolby Digital
Codec ID : A_AC3
Duration : 1 h 46 min
Bit rate mode : Constant
Bit rate : 192 kb/s
Channel(s) : 2 channels
Channel layout : L R
Sampling rate : 48.0 kHz
Frame rate : 31.250 FPS (1536 SPF)
Bit depth : 16 bits
Compression mode : Lossy
Stream size : 147 MiB (0%)
Title : Профессиональный (дублированный) Ист-Вест
Language : Russian
Service kind : Complete Main
Default : No
Forced : No

Audio #3
ID : 4
Format : AC-3
Format/Info : Audio Coding 3
Commercial name : Dolby Digital
Codec ID : A_AC3
Duration : 1 h 46 min
Bit rate mode : Constant
Bit rate : 384 kb/s
Channel(s) : 6 channels
Channel layout : L R C LFE Ls Rs
Sampling rate : 48.0 kHz
Frame rate : 31.250 FPS (1536 SPF)
Bit depth : 16 bits
Compression mode : Lossy
Stream size : 293 MiB (1%)
Title : Профессиональный (многоголосый закадровый)
Language : Russian
Service kind : Complete Main
Default : No
Forced : No

Audio #4
ID : 5
Format : AC-3
Format/Info : Audio Coding 3
Commercial name : Dolby Digital
Codec ID : A_AC3
Duration : 1 h 46 min
Bit rate mode : Constant
Bit rate : 192 kb/s
Channel(s) : 2 channels
Channel layout : L R
Sampling rate : 48.0 kHz
Frame rate : 31.250 FPS (1536 SPF)
Bit depth : 16 bits
Compression mode : Lossy
Stream size : 147 MiB (0%)
Title : Профессиональный (двухголосый закадровый) Премьер Видео Фильм
Language : Russian
Service kind : Complete Main
Default : No
Forced : No

Audio #5
ID : 6
Format : DTS
Format/Info : Digital Theater Systems
Codec ID : A_DTS
Duration : 1 h 46 min
Bit rate mode : Constant
Bit rate : 1 510 kb/s
Channel(s) : 6 channels
Channel layout : C L R Ls Rs LFE
Sampling rate : 48.0 kHz
Frame rate : 93.750 FPS (512 SPF)
Bit depth : 24 bits
Compression mode : Lossy
Stream size : 1.13 GiB (2%)
Title : Профессиональный (двухголосый закадровый) Гланц и Королёва
Language : Russian
Default : No
Forced : No

Audio #6
ID : 7
Format : DTS
Format/Info : Digital Theater Systems
Codec ID : A_DTS
Duration : 1 h 46 min
Bit rate mode : Constant
Bit rate : 1 509 kb/s
Channel(s) : 6 channels
Channel layout : C L R Ls Rs LFE
Sampling rate : 48.0 kHz
Frame rate : 93.750 FPS (512 SPF)
Bit depth : 24 bits
Compression mode : Lossy
Stream size : 1.13 GiB (2%)
Title : Авторский (одноголосый закадровый), Гаврилов
Language : Russian
Default : No
Forced : No

Audio #7
ID : 8
Format : DTS
Format/Info : Digital Theater Systems
Codec ID : A_DTS
Duration : 1 h 46 min
Bit rate mode : Constant
Bit rate : 755 kb/s
Channel(s) : 6 channels
Channel layout : C L R Ls Rs LFE
Sampling rate : 48.0 kHz
Frame rate : 93.750 FPS (512 SPF)
Bit depth : 24 bits
Compression mode : Lossy
Stream size : 577 MiB (1%)
Title : Авторский (одноголосый закадровый), Живов
Language : Russian
Default : No
Forced : No

Audio #8
ID : 9
Format : DTS
Format/Info : Digital Theater Systems
Codec ID : A_DTS
Duration : 1 h 46 min
Bit rate mode : Constant
Bit rate : 755 kb/s
Channel(s) : 6 channels
Channel layout : C L R Ls Rs LFE
Sampling rate : 48.0 kHz
Frame rate : 93.750 FPS (512 SPF)
Bit depth : 24 bits
Compression mode : Lossy
Stream size : 577 MiB (1%)
Title : Авторский (одноголосый закадровый), Визгунов
Language : Russian
Default : No
Forced : No

Audio #9
ID : 10
Format : AC-3
Format/Info : Audio Coding 3
Commercial name : Dolby Digital
Codec ID : A_AC3
Duration : 1 h 46 min
Bit rate mode : Constant
Bit rate : 448 kb/s
Channel(s) : 6 channels
Channel layout : L R C LFE Ls Rs
Sampling rate : 48.0 kHz
Frame rate : 31.250 FPS (1536 SPF)
Bit depth : 16 bits
Compression mode : Lossy
Stream size : 343 MiB (1%)
Title : Одноголосый закадровый, Doctor_Joker
Language : Russian
Service kind : Complete Main
Default : No
Forced : No

Audio #10
ID : 11
Format : AC-3
Format/Info : Audio Coding 3
Commercial name : Dolby Digital
Codec ID : A_AC3
Duration : 1 h 46 min
Bit rate mode : Constant
Bit rate : 192 kb/s
Channel(s) : 2 channels
Channel layout : L R
Sampling rate : 48.0 kHz
Frame rate : 31.250 FPS (1536 SPF)
Bit depth : 16 bits
Compression mode : Lossy
Stream size : 147 MiB (0%)
Title : Профессиональный (многоголосый закадровый), Так Треба Продакшн
Language : Ukrainian
Service kind : Complete Main
Default : No
Forced : No

Audio #11
ID : 12
Format : AC-3
Format/Info : Audio Coding 3
Commercial name : Dolby Digital
Codec ID : A_AC3
Duration : 1 h 46 min
Bit rate mode : Constant
Bit rate : 192 kb/s
Channel(s) : 2 channels
Channel layout : L R
Sampling rate : 48.0 kHz
Frame rate : 31.250 FPS (1536 SPF)
Bit depth : 16 bits
Compression mode : Lossy
Stream size : 147 MiB (0%)
Title : Профессиональный (многоголосый закадровый), ТВ+
Language : Ukrainian
Service kind : Complete Main
Default : No
Forced : No

Audio #12
ID : 13
Format : DTS XLL X
Format/Info : Digital Theater Systems
Commercial name : DTS-HD Master Audio
Codec ID : A_DTS
Duration : 1 h 46 min
Bit rate mode : Variable
Bit rate : 4 017 kb/s
Channel(s) : 8 channels
Channel(s)_Original : Object Based
Channel layout : Object Based
Sampling rate : 48.0 kHz
Frame rate : 93.750 FPS (512 SPF)
Bit depth : 24 bits
Stream size : 3.00 GiB (5%)
Language : English
Default : No
Forced : No

Text #1
ID : 14
Format : UTF-8
Codec ID : S_TEXT/UTF8
Codec ID/Info : UTF-8 Plain Text
Duration : 1 h 45 min
Bit rate : 62 b/s
Count of elements : 834
Stream size : 48.2 KiB (0%)
Title : Full
Language : Russian
Default : No
Forced : No

Text #2
ID : 15
Format : UTF-8
Codec ID : S_TEXT/UTF8
Codec ID/Info : UTF-8 Plain Text
Duration : 1 h 14 min
Bit rate : 1 b/s
Count of elements : 16
Stream size : 624 Bytes (0%)
Title : Full
Language : Russian
Default : No
Forced : No

Text #3
ID : 16
Format : UTF-8
Codec ID : S_TEXT/UTF8
Codec ID/Info : UTF-8 Plain Text
Duration : 1 h 46 min
Bit rate : 68 b/s
Count of elements : 850
Stream size : 53.4 KiB (0%)
Title : Full
Language : Russian
Default : No
Forced : No

Text #4
ID : 17
Format : UTF-8
Codec ID : S_TEXT/UTF8
Codec ID/Info : UTF-8 Plain Text
Duration : 1 h 45 min
Bit rate : 62 b/s
Count of elements : 808
Stream size : 48.2 KiB (0%)
Title : Full
Language : Russian
Default : No
Forced : No

Text #5
ID : 18
Format : UTF-8
Codec ID : S_TEXT/UTF8
Codec ID/Info : UTF-8 Plain Text
Duration : 1 h 38 min
Bit rate : 43 b/s
Count of elements : 811
Stream size : 31.0 KiB (0%)
Title : Full
Language : English
Default : No
Forced : No

Menu
00:00:00.000 : :Chapter 1
00:02:55.884 : :Chapter 2
00:10:19.243 : :Chapter 3
00:15:06.614 : :Chapter 4
00:26:39.472 : :Chapter 5
00:29:58.213 : :Chapter 6
00:34:41.871 : :Chapter 7
00:38:07.493 : :Chapter 8
00:44:55.401 : :Chapter 9
00:55:25.488 : :Chapter 10
00:58:39.432 : :Chapter 11
01:01:44.742 : :Chapter 12
01:09:24.118 : :Chapter 13
01:12:01.025 : :Chapter 14
01:15:22.684 : :Chapter 15
01:20:43.171 : :Chapter 16
01:29:58.810 : :Chapter 17
01:34:57.316 : :Chapter 18
01:38:04.461 : :Chapter 19
01:39:57.032 : :Chapter 20
У вас нет необходимых прав для просмотра вложений в этом сообщении.

Ответить