Телохранитель киллера / The Hitman's Bodyguard (2017) UHD BDRemux 2160p | 4K | HDR | Dolby Vision Profile 8 | Лицензия

Торрент [ Статус: Проверен ] Скачать Сидеров Личеров Размер
[mytorrnado.ru].t12997.torrent
0 0 66.84 ГБ
K15
Администратор
Сообщения: 84
Зарегистрирован: 16 сен 2019, 20:47

Телохранитель киллера / The Hitman's Bodyguard (2017) UHD BDRemux 2160p | 4K | HDR | Dolby Vision Profile 8 | Лицензия

Сообщение K15 » 16 фев 2021, 21:17

Информация о фильме
Название: Телохранитель киллера
Оригинальное название: The Hitman's Bodyguard
Год выхода: 2017
Жанр: Боевик, комедия
Режиссер: Патрик Хьюз
В ролях: Райан Рейнольдс, Сэмюэл Л. Джексон, Элоди Юнг, Сальма Хайек, Гэри Олдман, Жоаки де Алмейда, Юрий Колокольников, Тине Жустра, Сэм Хэзелдайн, Ричард Э. Грант, Род Халлетт, Нуртье Херлар, Михаил Горевой, Кирсти Митчелл, Крис Брейзиер, Алан МакКенна, Жозефин де ла Буме, Ори Феффер, Александр Меркюри, Майкл Джинкс, Джастин Пирсон, Оуэн Дэвис

О фильме: Он — телохранитель мирового уровня. Его новая работа — охранять киллера, которого все мечтают убить. Он и сам с удовольствием прикончил бы этого гада. Но работа есть работа: смертельные враги в прошлом, они вынуждены объединиться в настоящем, чтобы выжить. Однако их методы настолько различны, а принципы противоположны, что вопрос выживания — под большим вопросом.



Страна: США, Китай, Болгария, Нидерланды
Студия: Campbell Grobman Films, Cristal Pictures, East Light Media, Millennium Films
Продолжительность: 01:58:25
Перевод: Дублированный | Лицензия

Файл
Кодек: H.265
Качество: UHD BDRemux 2160p
Видео: HEVC HDR, Dolby Vision Profile 8, 70.9 Mбит/с, 3840x2160, 23.976 кадр/с
Аудио #1 Русский: AC3, 48.0 kHz, 6 ch, 640 kb/s | [Дублированный]
Аудио #2 Русский: DTS-HD Master Audio, 48.0 kHz, 5.1 ch, 3888 kb/s | [Дублированный]
Аудио #3 English: Dolby TrueHD/Atmos Audio, 7.1 ch, 48 kHz, 4600 kbps
Аудио #4 English: AC3, 48.0 kHz, 6 ch, 640 kb/s
Субтитры: русские(forced, полные), английские
Дополнительная информация: Данный вид релизов в MKV сделан в 8-м профиле Dolby Vision для воспроизведении на устройствах с поддержкой DV. Протестировано на тв-боксах Nvidia Shield 2019, Zidoo Z1000 Pro и Ugoos AM6+. На устройствах без поддержки Dolby Vision будет играть обычный HDR10.
General
Unique ID : 80318260841832905481275807018341004384 (0x3C6CBBFF416532F1B7A42EC9894A7460)
Complete name : DS918videoKino 4K DVThe.Hitman's.Bodyguard.2017.BDREMUX.2160p.DV.HDR.mkv
Format : Matroska
Format version : Version 2
File size : 66.8 GiB
Duration : 1 h 58 min
Overall bit rate mode : Variable
Overall bit rate : 80.8 Mb/s
Movie name : The Hitman's Bodyguard
Encoded date : UTC 2021-02-01 11:07:17
Writing application : MakeMKV v1.15.4 win(x64-release)
Writing library : libmakemkv v1.15.4 (1.3.10/1.5.2) win(x64-release)

Video
ID : 1
Format : HEVC
Format/Info : High Efficiency Video Coding
Format profile : Main 10@L5.1@High
HDR format : Dolby Vision, Version 1.0, dvhe.08.06, BL+RPU, Blu-ray compatible / SMPTE ST 2086, HDR10 compatible
Codec ID : V_MPEGH/ISO/HEVC
Duration : 1 h 58 min
Bit rate : 70.9 Mb/s
Width : 3 840 pixels
Height : 2 160 pixels
Display aspect ratio : 16:9
Frame rate mode : Constant
Frame rate : 23.976 (24000/1001) FPS
Color space : YUV
Chroma subsampling : 4:2:0 (Type 2)
Bit depth : 10 bits
Bits/(Pixel*Frame) : 0.357
Stream size : 58.7 GiB (88%)
Language : English
Default : No
Forced : No
Color range : Limited
Color primaries : BT.2020
Transfer characteristics : PQ
Matrix coefficients : BT.2020 non-constant
Mastering display color pri : Display P3
Mastering display luminance : min: 0.0050 cd/m2, max: 1000 cd/m2
Maximum Content Light Level : 1000 cd/m2
Maximum Frame-Average Light : 566 cd/m2

Audio #1
ID : 2
Format : AC-3
Format/Info : Audio Coding 3
Commercial name : Dolby Digital
Codec ID : A_AC3
Duration : 1 h 58 min
Bit rate mode : Constant
Bit rate : 640 kb/s
Channel(s) : 6 channels
Channel layout : L R C LFE Ls Rs
Sampling rate : 48.0 kHz
Frame rate : 31.250 FPS (1536 SPF)
Compression mode : Lossy
Stream size : 542 MiB (1%)
Title : Dub
Language : Russian
Service kind : Complete Main
Default : Yes
Forced : No

Audio #2
ID : 3
Format : DTS XLL
Format/Info : Digital Theater Systems
Commercial name : DTS-HD Master Audio
Codec ID : A_DTS
Duration : 1 h 58 min
Bit rate mode : Variable
Bit rate : 3 888 kb/s
Channel(s) : 6 channels
Channel layout : C L R Ls Rs LFE
Sampling rate : 48.0 kHz
Frame rate : 93.750 FPS (512 SPF)
Bit depth : 24 bits
Compression mode : Lossless
Stream size : 3.21 GiB (5%)
Title : Dub
Language : Russian
Default : No
Forced : No

Audio #3
ID : 4
Format : MLP FBA 16-ch
Format/Info : Meridian Lossless Packing FBA with 16-channel presentation
Commercial name : Dolby TrueHD with Dolby Atmos
Codec ID : A_TRUEHD
Duration : 1 h 58 min
Bit rate mode : Variable
Bit rate : 4 600 kb/s
Maximum bit rate : 8 598 kb/s
Channel(s) : 8 channels
Channel layout : L R C LFE Ls Rs Lb Rb
Sampling rate : 48.0 kHz
Frame rate : 1 200.000 FPS (40 SPF)
Bit depth : 24 bits
Compression mode : Lossless
Stream size : 3.81 GiB (6%)
Title : Surround 7.1
Language : English
Default : No
Forced : No
Number of dynamic objects : 15
Bed channel count : 1 channel
Bed channel configuration : LFE

Audio #4
ID : 5
Format : AC-3
Format/Info : Audio Coding 3
Commercial name : Dolby Digital
Format settings : Dolby Surround EX
Codec ID : A_AC3
Duration : 1 h 58 min
Bit rate mode : Constant
Bit rate : 640 kb/s
Channel(s) : 6 channels
Channel layout : L R C LFE Ls Rs
Sampling rate : 48.0 kHz
Frame rate : 31.250 FPS (1536 SPF)
Compression mode : Lossy
Stream size : 542 MiB (1%)
Title : Surround 5.1
Language : English
Service kind : Complete Main
Default : No
Forced : No

Text #1
ID : 6
Format : PGS
Codec ID : S_HDMV/PGS
Codec ID/Info : Picture based subtitle format used on BDs/HD-DVDs
Duration : 1 h 56 min
Bit rate : 553 b/s
Count of elements : 42
Stream size : 474 KiB (0%)
Title : forced
Language : Russian
Default : Yes
Forced : No

Text #2
ID : 7
Format : PGS
Codec ID : S_HDMV/PGS
Codec ID/Info : Picture based subtitle format used on BDs/HD-DVDs
Duration : 1 h 56 min
Bit rate : 38.1 kb/s
Count of elements : 3086
Stream size : 31.9 MiB (0%)
Title : full
Language : Russian
Default : No
Forced : No

Text #3
ID : 8
Format : PGS
Codec ID : S_HDMV/PGS
Codec ID/Info : Picture based subtitle format used on BDs/HD-DVDs
Duration : 1 h 57 min
Bit rate : 52.4 kb/s
Count of elements : 3910
Stream size : 44.1 MiB (0%)
Language : English
Default : No
Forced : No

Menu
00:00:00.000 : en:Chapter 01
00:07:23.901 : en:Chapter 02
00:13:54.834 : en:Chapter 03
00:20:25.140 : en:Chapter 04
00:27:21.973 : en:Chapter 05
00:32:55.348 : en:Chapter 06
00:38:27.263 : en:Chapter 07
00:46:53.936 : en:Chapter 08
00:56:41.189 : en:Chapter 09
01:00:25.204 : en:Chapter 10
01:09:13.232 : en:Chapter 11
01:16:36.216 : en:Chapter 12
01:21:13.076 : en:Chapter 13
01:27:46.928 : en:Chapter 14
01:35:07.660 : en:Chapter 15
01:40:38.699 : en:Chapter 16
01:57:11.190 : en:Chapter 17
У вас нет необходимых прав для просмотра вложений в этом сообщении.

Кто сейчас на конференции

Сейчас этот форум просматривают: нет зарегистрированных пользователей и 1 гость