Проблемы Грэй / Gray Matters [Мелодрама, комедия, 2006] WEB-DL 1080p, Dvo

Торрент раздачи, не нашедшие своего раздела / Torrent distribution, not found its section
Ответить
Торрент Сидеров Личеров Размер
torrent_649152.torrent
0 0 7.64 ГБ

Автор темы
salma3
Супермодератор
Сообщения: 92
Зарегистрирован: 20 авг 2018, 11:57
Репутация: 0
Russia

Проблемы Грэй / Gray Matters [Мелодрама, комедия, 2006] WEB-DL 1080p, Dvo

#1

Сообщение salma3 » 24 авг 2018, 10:49

Год выпуска: 2006
Выпущено: США
Жанр: Мелодрама, комедия
Режиссер: Сью Крамер

В ролях: Хезер Грэм, Бриджет Мойнэхэн, Томас Кэвэна, Молли Шеннон, Рэйчел Шелли, Билл Монди, Дон Экерман, Уоррен Кристи, Алан Камминг, Сисси Спейсек

О фильме: Грей и Сэм имеют прекрасную связь, как брат и сестра. Они знакомы с детства, но теперь, когда они становятся взрослыми они по-прежнему живут вместе и остаются лучшими друзьями. Но однажды между ними встаёт Чарли. И в итоге сюжет сильно меняется, с появлением Чарли у Грей всё меняется и вскоре Сэм узнаёт о лесбийской связи его подруги детства с новой подружкой…

Продолжительность: 01:36:52
Перевод: Профессиональный двухголосый, любительский
Субтитры: Английские

Файл
Качество: WEB-DL 1080p
Видео: MPEG-4 AVC, 10,5 Мбит/сек, 1920x1080, 24,000 кадра/сек
Аудио #1: AC3, 2 ch, 192 Кбит/сек | Русский, профессиональный (двухголосый закадровый) студия Ульпаней Эльром
Аудио #2: AC3, 2 ch, 192 Кбит/сек | Русский, любительский (одноголосый закадровый)
Аудио #3: EAC3, 2 ch, 224 Кбит/сек | Английский, оригинал


Скриншоты
Инфо-файл
Общее
Уникальный идентификатор : 202827235699801742716961610912054326367 (0x98971ACC1F375410A46559CC0193345F)
Полное имя : Проблемы.Грэй.2006.WEB-DL.1080p.mkv
Формат : Matroska
Версия формата : Version 2
Размер файла : 7,64 Гбайт
Продолжительность : 1 ч. 36 м.
Общий поток : 11,3 Мбит/сек
Дата кодирования : UTC 2018-08-22 23:08:27
Программа кодирования : mkvmerge v5.8.0 ('No Sleep / Pillow') built on Sep 2 2012 15:37:04
Библиотека кодирования : libebml v1.2.3 + libmatroska v1.3.0

Видео
Идентификатор : 1
Формат : AVC
Формат/Информация : Advanced Video Codec
Профиль формата : High@L4
Настройки формата : CABAC / 4 Ref Frames
Параметр CABAC формата : Да
Параметр RefFrames формата : 4 кадра
Идентификатор кодека : V_MPEG4/ISO/AVC
Продолжительность : 1 ч. 36 м.
Битрейт : 10,5 Мбит/сек
Ширина : 1920 пикселей
Высота : 1080 пикселей
Соотношение сторон : 16:9
Режим частоты кадров : Постоянный
Частота кадров : 24,000 кадра/сек
Цветовое пространство : YUV
Субдискретизация насыщенности : 4:2:0
Битовая глубина : 8 бит
Тип развёртки : Прогрессивная
Бит/(Пиксели*Кадры) : 0.210
Размер потока : 7,07 Гбайт (93%)
Язык : English
По умолчанию : Да
Принудительно : Нет
Цветовой диапазон : Limited
Основные цвета : BT.709
Характеристики трансфера : BT.709
Коэффициенты матрицы : BT.709

Аудио #1
Идентификатор : 2
Формат : AC-3
Формат/Информация : Audio Coding 3
Идентификатор кодека : A_AC3
Продолжительность : 1 ч. 36 м.
Вид битрейта : Постоянный
Битрейт : 192 Кбит/сек
Каналы : 2 канала
Расположение каналов : Front: L R
Частота : 48,0 КГц
Частота кадров : 31,250 кадров/сек (1536 SPF)
Битовая глубина : 16 бит
Метод сжатия : С потерями
Размер потока : 133 Мбайт (2%)
Заголовок : DVO | Ульпаней Эльром
Язык : Russian
По умолчанию : Да
Принудительно : Нет

Аудио #2
Идентификатор : 3
Формат : AC-3
Формат/Информация : Audio Coding 3
Идентификатор кодека : A_AC3
Продолжительность : 1 ч. 36 м.
Вид битрейта : Постоянный
Битрейт : 192 Кбит/сек
Каналы : 2 канала
Расположение каналов : Front: L R
Частота : 48,0 КГц
Частота кадров : 31,250 кадров/сек (1536 SPF)
Битовая глубина : 16 бит
Метод сжатия : С потерями
Размер потока : 133 Мбайт (2%)
Заголовок : VO
Язык : Russian
По умолчанию : Нет
Принудительно : Нет

Аудио #3
Идентификатор : 4
Формат : E-AC-3
Формат/Информация : Enhanced Audio Coding 3
Идентификатор кодека : A_EAC3
Продолжительность : 1 ч. 36 м.
Вид битрейта : Постоянный
Битрейт : 224 Кбит/сек
Каналы : 2 канала
Расположение каналов : Front: L R
Частота : 48,0 КГц
Частота кадров : 187,500 кадров/сек (256 SPF)
Метод сжатия : С потерями
Размер потока : 155 Мбайт (2%)
Заголовок : Original
Язык : English
По умолчанию : Нет
Принудительно : Нет

Текст
Идентификатор : 5
Формат : UTF-8
Идентификатор кодека : S_TEXT/UTF8
Идентификатор кодека/Информация : UTF-8 Plain Text
Заголовок : SDH
Язык : English
По умолчанию : Нет
Принудительно : Нет
Дополнительная информация
• Исходник видео WEB-DL Amazon.
Сборка:
У вас нет необходимых прав для просмотра вложений в этом сообщении.

Ответить

Кто сейчас на конференции

Сейчас этот форум просматривают: нет зарегистрированных пользователей и 3 гостя