Главная мишень / First Target [Боевик, 2000] WEB-DL 1080p, Mvo

Раздел для видео роликов, фильмов, мультфильмов... в общем для любого видео / Section for videos, movies, cartoons... in General for any video
Торрент Сидеров Личеров Размер
torrent_649055.torrent
59 1 9.18 ГБ

Автор темы
salma3
Супермодератор
Сообщения: 92
Зарегистрирован: 20 авг 2018, 11:57
Репутация: 0
Russia

Главная мишень / First Target [Боевик, 2000] WEB-DL 1080p, Mvo

#1

Сообщение salma3 » 24 авг 2018, 10:50

Год выпуска: 2000
Выпущено: США, Канада
Жанр: Боевик
Режиссер: Арман Мастрояни

В ролях: Дэрил Ханна, Даг Сэвант, Брэнди Лэдфорд, Питер Флемминг, Гэри Бэйкуэлл, Джейсон Шомбинг, Роберт Уизден, Том Батлер, Она Грауэр, Аарон Грэйн

О фильме: Они выбирали президента и мечтали, что он улучшит их жизнь. Но избранник не оправдал ожиданий, и тогда они решили его убрать. Они проделали длинный путь и добрались до цели.Теперь их главная мишень — президент Америки Джонатан Хэйс — не уйдет от возмездия. Еще немного и кара настигнет его в Центральном парке. Сможет ли глава секретной службы Алекс МакГрегор с помощью агента Гранта Колмена обезопасить своего шефа?

Продолжительность: 01:32:45
Перевод: Профессиональный многоголосый
Субтитры: Английские

Файл
Качество: WEB-DL 1080p
Видео: MPEG-4 AVC, 13,5 Мбит/сек, 1920x1080, 23,976 кадра/сек
Аудио #1: AC3, 2 ch, 192 Кбит/сек | Русский, профессиональный (многоголосый закадровый) 1 канал
Аудио #2: EAC3, 2 ch, 224 Кбит/сек | Английский, оригинал


РазвернутьСкриншоты
РазвернутьИнфо-файл
Общее
Уникальный идентификатор : 209728254326714017559679187308765368841 (0x9DC83148F0007A53AA671CEE88E5D209)
Полное имя : Главная.мишень.2000.WEB-DL.1080p.mkv
Формат : Matroska
Версия формата : Version 2
Размер файла : 9,18 Гбайт
Продолжительность : 1 ч. 32 м.
Общий поток : 14,2 Мбит/сек
Дата кодирования : UTC 2018-08-22 10:19:31
Программа кодирования : mkvmerge v5.8.0 ('No Sleep / Pillow') built on Sep 2 2012 15:37:04
Библиотека кодирования : libebml v1.2.3 + libmatroska v1.3.0

Видео
Идентификатор : 1
Формат : AVC
Формат/Информация : Advanced Video Codec
Профиль формата : High@L4
Настройки формата : CABAC / 4 Ref Frames
Параметр CABAC формата : Да
Параметр RefFrames формата : 4 кадра
Идентификатор кодека : V_MPEG4/ISO/AVC
Продолжительность : 1 ч. 32 м.
Битрейт : 13,5 Мбит/сек
Ширина : 1920 пикселей
Высота : 1080 пикселей
Соотношение сторон : 16:9
Режим частоты кадров : Постоянный
Частота кадров : 23,976 (24000/1001) кадра/сек
Цветовое пространство : YUV
Субдискретизация насыщенности : 4:2:0
Битовая глубина : 8 бит
Тип развёртки : Прогрессивная
Бит/(Пиксели*Кадры) : 0.271
Размер потока : 8,73 Гбайт (95%)
Язык : English
По умолчанию : Да
Принудительно : Нет
Цветовой диапазон : Limited
Основные цвета : BT.709
Характеристики трансфера : BT.709
Коэффициенты матрицы : BT.709

Аудио #1
Идентификатор : 2
Формат : AC-3
Формат/Информация : Audio Coding 3
Идентификатор кодека : A_AC3
Продолжительность : 1 ч. 32 м.
Вид битрейта : Постоянный
Битрейт : 192 Кбит/сек
Каналы : 2 канала
Расположение каналов : Front: L R
Частота : 48,0 КГц
Частота кадров : 31,250 кадров/сек (1536 SPF)
Битовая глубина : 16 бит
Метод сжатия : С потерями
Размер потока : 127 Мбайт (1%)
Заголовок : MVO | 1 канал
Язык : Russian
По умолчанию : Да
Принудительно : Нет

Аудио #2
Идентификатор : 3
Формат : E-AC-3
Формат/Информация : Enhanced Audio Coding 3
Идентификатор кодека : A_EAC3
Продолжительность : 1 ч. 32 м.
Вид битрейта : Постоянный
Битрейт : 224 Кбит/сек
Каналы : 2 канала
Расположение каналов : Front: L R
Частота : 48,0 КГц
Частота кадров : 187,500 кадров/сек (256 SPF)
Метод сжатия : С потерями
Размер потока : 149 Мбайт (2%)
Заголовок : Original
Язык : English
По умолчанию : Нет
Принудительно : Нет

Текст #1
Идентификатор : 4
Формат : UTF-8
Идентификатор кодека : S_TEXT/UTF8
Идентификатор кодека/Информация : UTF-8 Plain Text
Язык : English
По умолчанию : Нет
Принудительно : Нет

Текст #2
Идентификатор : 5
Формат : UTF-8
Идентификатор кодека : S_TEXT/UTF8
Идентификатор кодека/Информация : UTF-8 Plain Text
Заголовок : SDH
Язык : English
По умолчанию : Нет
Принудительно : Нет
РазвернутьДополнительная информация
• Исходник видео WEB-DL Amazon.
Сборка:
У вас нет необходимых прав для просмотра вложений в этом сообщении.

Ответить Вложения 1

Кто сейчас на конференции

Сейчас этот форум просматривают: нет зарегистрированных пользователей и 0 гостей