Леди и Бродяга / Lady and the Tramp (2019) WEBRip 1080p | L | Flarrow Films

Раздача видео файлов
Ответить
Торрент Сидеров Личеров Размер
[rutor.is]Lady.and.the.Tramp.2019.WEBRip.1080p.mkv.torrent
38 2 3.74 ГБ
K15
Администратор
Сообщения: 54
Зарегистрирован: 16 сен 2019, 20:47

Леди и Бродяга / Lady and the Tramp (2019) WEBRip 1080p | L | Flarrow Films

Сообщение K15 » 21 дек 2019, 16:38

Информация о фильме
Название: Леди и Бродяга
Оригинальное название: Lady and the Tramp
Год выхода: 2019
Жанр: Драма, мелодрама, комедия, приключения, семейный
Режиссер: Чарли Бин
В ролях: Тесса Томпсон, Джастин Теру, Сэм Эллиотт, Эшли Дженсен, Жанель Монэ, Бенедикт Вонг, Клэнси Браун, Нейт «Ракета» Уандер, Роман ДжанАртур Ирвин, Джеймс Бентли, Томас Манн, Кирси Клемонс, Иветт Николь Браун, Адриан Мартинес

О фильме:
Чтобы порадовать дорогую супругу, джентльмен по имени Джим Ди решает презентовать очаровательного щеночка благородных кровей. Ему предложили девочку, которую назвали Леди. По соседству проживают породистые собаки, с которыми можно заводить респектабельные отношения - терьер и бладхаунд. Героиня фильма «Леди и Бродяга» обладает хорошими манерами и умеет вести себя в обществе, а об ее изящности ходят слухи в соответствующих высших кругах. Очаровашка не подозревает, что в приличных условиях живут только избранные, а в бедных районах псам приходится бороться за выживание и питаться отбросами. В последнее время беспризорных развелось слишком много, поэтому власти решили дать разрешение на отстрел. Чтобы спастись от преследователей добрый и шустрый Бродяга скрывается в роскошном квартале и встречается с собачкой, которой придется многое узнать о другой стороне жизни. Она сбежала от хозяев, обидевшись на то, что они завели ребенка и уделяют ему больше времени.



Страна: США
Студия: Taylor Made, Walt Disney Company, The, Walt Disney Pictures
Продолжительность: 01:42:49
Перевод: Любительский многоголосый | Flarrow Films

Файл
Кодек: x.264
Качество: WEBRip 1080p
Видео: MPEG-4 AVC, 4500 Kбит/с, 1920x960, 23.976 кадр/с
Аудио #1: Русский (АС3, 2 ch, 320 Кбит/с, 48.0 KHz) Любительский (многоголосый, закадровый) Flarrow Films
Аудио #2: Английский (АС3, 6 ch, 384 Кбит/с, 48.0 KHz)
Субтитры: Русские (Форс. на песни (*srt), английские, испанские, французские

► Без Рекламы!
Трейлер
Источник: Lady.and.the.Tramp.2019.WEB-DL.2160p.x265.10bit.S87.Joy
General
Unique ID : 196259750461203990380453845580612129914 (0x93A640C68433128E9552EDC80174547A)
Complete name : Lady.and.the.Tramp.2019.WEBRip.1080p.mkv
Format : Matroska
Format version : Version 4
File size : 3.74 GiB
Duration : 1 h 42 min
Overall bit rate : 5 203 kb/s
Encoded date : UTC 2019-12-19 13:41:42
Writing application : mkvmerge v7.1.0 ('Good Love') 64bit built on Jul 27 2014 13:06:55
Writing library : libebml v1.3.0 + libmatroska v1.4.1

Video
ID : 1
Format : AVC
Format/Info : Advanced Video Codec
Format profile : High@L4.1
Format settings : CABAC / 4 Ref Frames
Format settings, CABAC : Yes
Format settings, Reference fra : 4 frames
Codec ID : V_MPEG4/ISO/AVC
Duration : 1 h 42 min
Bit rate : 4 500 kb/s
Width : 1 920 pixels
Height : 960 pixels
Display aspect ratio : 2.000
Frame rate mode : Constant
Frame rate : 23.976 (24000/1001) FPS
Color space : YUV
Chroma subsampling : 4:2:0
Bit depth : 8 bits
Scan type : Progressive
Bits/(Pixel*Frame) : 0.102
Stream size : 3.23 GiB (86%)
Writing library : x264 core 148 r2638 7599210
Encoding settings : cabac=1 / ref=4 / deblock=1:0:0 / analyse=0x3:0x113 / me=umh / subme=10 / psy=1 / psy_rd=1.00:0.00 / mixed_ref=1 / me_range=32 / chroma_me=1 / trellis=2 / 8x8dct=1 / cqm=0 / deadzone=21,11 / fast_pskip=1 / chroma_qp_offset=-2 / threads=6 / lookahead_threads=1 / sliced_threads=0 / nr=0 / decimate=1 / interlaced=0 / bluray_compat=0 / constrained_intra=0 / bframes=8 / b_pyramid=2 / b_adapt=2 / b_bias=0 / direct=3 / weightb=1 / open_gop=0 / weightp=2 / keyint=250 / keyint_min=23 / scenecut=40 / intra_refresh=0 / rc_lookahead=40 / rc=2pass / mbtree=1 / bitrate=4500 / ratetol=1.0 / qcomp=0.60 / qpmin=0 / qpmax=69 / qpstep=4 / cplxblur=20.0 / qblur=0.5 / vbv_maxrate=50000 / vbv_bufsize=62500 / nal_hrd=none / filler=0 / ip_ratio=1.40 / aq=1:1.00
Language : English
Default : Yes
Forced : No

Audio #1
ID : 2
Format : AC-3
Format/Info : Audio Coding 3
Commercial name : Dolby Digital
Codec ID : A_AC3
Duration : 1 h 42 min
Bit rate mode : Constant
Bit rate : 320 kb/s
Channel(s) : 2 channels
Channel layout : L R
Sampling rate : 48.0 kHz
Frame rate : 31.250 FPS (1536 SPF)
Compression mode : Lossy
Stream size : 235 MiB (6%)
Title : Flarrow Films
Language : Russian
Service kind : Complete Main
Default : Yes
Forced : No

Audio #2
ID : 3
Format : AC-3
Format/Info : Audio Coding 3
Commercial name : Dolby Digital
Codec ID : A_AC3
Duration : 1 h 42 min
Bit rate mode : Constant
Bit rate : 384 kb/s
Channel(s) : 6 channels
Channel layout : L R C LFE Ls Rs
Sampling rate : 48.0 kHz
Frame rate : 31.250 FPS (1536 SPF)
Compression mode : Lossy
Stream size : 282 MiB (7%)
Language : English
Service kind : Complete Main
Default : No
Forced : No

Text #1
ID : 4
Format : UTF-8
Codec ID : S_TEXT/UTF8
Codec ID/Info : UTF-8 Plain Text
Duration : 1 h 35 min
Bit rate : 7 b/s
Count of elements : 111
Stream size : 5.14 KiB (0%)
Title : Forced
Language : Russian
Default : Yes
Forced : No

Text #2
ID : 5
Format : UTF-8
Codec ID : S_TEXT/UTF8
Codec ID/Info : UTF-8 Plain Text
Duration : 1 h 40 min
Bit rate : 72 b/s
Count of elements : 1803
Stream size : 53.6 KiB (0%)
Language : English
Default : No
Forced : No

Text #3
ID : 6
Format : UTF-8
Codec ID : S_TEXT/UTF8
Codec ID/Info : UTF-8 Plain Text
Duration : 1 h 41 min
Bit rate : 48 b/s
Count of elements : 1461
Stream size : 36.1 KiB (0%)
Language : French
Default : No
Forced : No

Text #4
ID : 7
Format : UTF-8
Codec ID : S_TEXT/UTF8
Codec ID/Info : UTF-8 Plain Text
Duration : 1 h 41 min
Bit rate : 54 b/s
Count of elements : 1424
Stream size : 40.3 KiB (0%)
Language : Spanish
Default : No
Forced : No

Menu
00:00:00.000 : en:Chapitre 01
00:11:00.000 : en:Chapitre 02
00:22:00.000 : en:Chapitre 03
00:33:00.000 : en:Chapitre 04
00:44:00.000 : en:Chapitre 05
00:55:00.000 : en:Chapitre 06
01:06:00.000 : en:Chapitre 07
01:17:00.000 : en:Chapitre 08
01:28:00.000 : en:Chapitre 09
01:39:00.000 : en:Chapitre 10
У вас нет необходимых прав для просмотра вложений в этом сообщении.

Ответить