Одиннадцать друзей Оушена / Ocean's Eleven [триллер, криминал, 2001] HDTVRip 1080p, Dub [Open Matte]

Раздел для видео роликов, фильмов, мультфильмов... в общем для любого видео / Section for videos, movies, cartoons... in General for any video
Торрент Сидеров Личеров Размер
torrent_649240.torrent
0 0 14.5 ГБ

Автор темы
salma3
Супермодератор
Сообщения: 92
Зарегистрирован: 20 авг 2018, 11:57
Репутация: 0
Russia

Одиннадцать друзей Оушена / Ocean's Eleven [триллер, криминал, 2001] HDTVRip 1080p, Dub [Open Matte]

#1

Сообщение salma3 » 25 авг 2018, 10:49

Год выпуска: 2001
Жанр: триллер, криминал
Режиссер: Стивен Содерберг

В ролях: Джордж Клуни, Брэд Питт, Мэтт Дэймон, Дон Чидл, Энди Гарсия, Джулия Робертс, Кейси Аффлек, Скотт Каан, Эллиот Гоулд, Берни Мак, Карл Райнер

О фильме: После выхода из тюрьмы вора Дэнни Оушена не проходит и 24 часов, а он уже планирует организовать самое сложное ограбление казино в истории. Он хочет украсть 160 млн американских долларов из трёх самых преуспевающих казино Лас-Вегаса. Все эти казино принадлежат элегантному и в то же время жестокому дельцу Терри Бенедикту, который только и мечтает о том, как встретится с бывшей женой Дэнни Оушена — Тесс. Всего за одну ночь Дэнни подбирает команду из одиннадцати «специалистов», способных совершить эту дерзкую кражу. В команде Оушена оказываются первоклассный карточный шулер, молодой искусный вор-карманник и гениальный разрушитель. Чтобы совершить этот безумный и сложный грабёж, Оушену придётся рисковать своей жизнью.



Страна: США
Продолжительность: 01:56:34
Перевод: Профессиональный (дублированный), Профессиональный (многоголосый, закадровый), Профессиональный (двухголосый, закадровый), Авторский (одноголосый, закадровый)

Файл
Качество: HDTVRip 1080p | Open Matte
Формат: Matroska
Видео: 1920x1080 at 23.976 fps, x264, ~12800 kbps avg
Аудио#1: Russian: 48 kHz, AC3, 3/2 (L,C,R,l,r) + LFE ch, ~640 kbps avg |Дубляж, Blu-ray CEE|
Аудио#2: Russian: 48 kHz, AC3, 3/2 (L,C,R,l,r) + LFE ch, ~384 kbps avg |Многоголосый закадровый, DVD|
Аудио#3: Russian: 48 kHz, AC3, 2/0 (L,R) ch, ~192 kbps avg |Многоголосый закадровый, Ren TV|
Аудио#4: Russian: 48 kHz, AC3, 3/2 (L,C,R,l,r) + LFE ch, ~640 kbps avg |Двухголосый закадровый, П.Гланц и И.Королева|
Аудио#5: Russian: 48 kHz, AC3, 2/0 (L,R) ch, ~192 kbps avg |Двухголосый закадровый, Universal Channel|
Аудио#6: Russian: 48 kHz, DTS, 3/2 (L,C,R,l,r) + LFE ch, ~755 kbps avg |Авторский, A.Гаврилов|
Аудио#7: Russian: 48 kHz, AC3, 2/0 (L,R) ch, ~192 kbps avg |Авторский, C.Визгунов|
Аудио#8: Russian: 48 kHz, AC3, 3/2 (L,C,R,l,r) + LFE ch, ~640 kbps avg |Авторский, А.Матвеев|
Аудио#9: English: 48 kHz, AC3, 3/2 (L,C,R,l,r) + LFE ch, ~640 kbps avg
Аудио#10: English: 48 kHz, AC3, 2/0 (L,R) ch, ~192 kbps avg |Комментарии актеров|
Аудио#11: English: 48 kHz, AC3, 2/0 (L,R) ch, ~192 kbps avg |Комментарии режиссера и сценариста|
Субтитры: Russian, English

***Релиз: SOFCJ.
РазвернутьЗнаете ли вы, что...
Люк Уилсон и Оуэн Уилсон должны были сыграть братьев Вёрджила и Тёрка Мэллоев, но они не смогли сниматься из-за участия в проекте «Семейка Тененбаум» (2001). Эти роли в итоге исполнили Кейси Аффлек и Скотт Каан.
Роль карманника, которая в итоге досталась Мэтту Дэймону, первоначально предназначалась Марку Уолбергу.
Брюс Уиллис выбыл из проекта из-за загруженности в других фильмах.
За использование на съёмках дома, в котором по сюжету живёт герой Эллиотта Гулда, студия Warner Bros. заплатила $200.000.
Во время съемок в гримерной Джорджа Клуни был установлен бочонок пива «Гиннесс».
Генри Сильва и Энджи Дикинсон, снимавшиеся в фильме «11 друзей Оушена» (1960), появились в его ремейке в эпизодических ролях (сцена драки).
Кроме Дэнни Оушена, имена всех других персонажей фильма оригинала были изменены в ремейке.
Брэд Питт появляется в этом фильме с татуировкой в виде огня на левой руке. Та же татуировка была у Джорджа Клуни в картине «От заката до рассвета» (1995).
В эпизоде, где Расти (Брэд Питт) учит играть в покер знаменитостей, Джошуа Джексон появляется с тем же перстнем с черепом, который был на его руке в фильме «Черепа» (2000).
Режиссёр фильма Стивен Содерберг исполнил камео, сыграв одного из грабителей сейфов.
В перерывах между съемками актёры играли в казино. Несмотря на противоречивые сведения о том, кто выиграл больше, Клуни умудрился проиграть в блэкджек 25 партий подряд.
Роль Фрэнка Кэттона, которую исполнил Берни Мак, первоначально предназначалась Дэнни Гловеру, но тот предпочел сняться в фильме «Семейка Тененбаум» (2001).
160 миллионов долларов (похищенная сумма) в 100-долларовых банкнотах весит 1,6 тонны.
Юэн МакГрегор рассматривался на роль Бэшера.
Джону Фавро предложили написать сценарий, но он отказался.
Изначально, на роль Сола Блума был выбран Дон Риклз.
На роль Рубена Тишкоффа рассматривались Сидни Поллак и Деннис Франц.
Уоренн Битти, Майкл Дуглас и Рэйф Файнс рассматривались на роль Терри Бенедикта.
Финальная сцена, в которой главные герои стоят перед фонтаном, имитирует знаменитый эпизод из картины Филипа Кауфмана «Парни что надо» (1983), где астронавты наблюдают за выступлением танцовщицы Салли Рэнд.
Ограбление происходит якобы в день поединка Владимир Кличко - Леннокс Льюис за звание чемпиона мира по боксу. В реальности в бою с Льюисом сошёлся 21 июня 2003 года брат Владимира - Виталий.
В эпизоде, где Бенедикт просматривает записи с камер наблюдения, предоставленные грабителями, на экране с записью из хранилища указаны числа»… N 419». В следующем кадре экран всё той же камеры и всё ещё демонстрирующий запись грабителей показывает»… S 420».
[*]Неясно откуда у Дэнни и Лайнуса в хранилище появились 6 сумок заполненных рекламой проституток. Команда «спецназа» приехала после того, как вынесли сумки, и принести флаеры не могла.
РазвернутьMediaInfo
Complete name : 11.Druzej.Oushena.2001.Open.Matte.HDTVRip.1080p-SOFCJ.mkv
Format : Matroska
Format version : Version 4 / Version 2
File size : 14.5 GiB
Duration : 1 h 56 min
Overall bit rate : 17.8 Mb/s
Movie name : 11.Druzej.Oushena.2001.Open.Matte.HDTVRip.1080p-SOFCJ
Encoded date : UTC 2018-08-24 20:58:46
Writing application : mkvmerge v8.3.0 ('Over the Horizon') 64bit
Writing library : libebml v1.3.1 + libmatroska v1.4.2
Cover : Yes
Attachments : cover.jpg

Video
ID : 1
Format : AVC
Format/Info : Advanced Video Codec
Format profile : High@L4.1
Format settings : CABAC / 5 Ref Frames
Format settings, CABAC : Yes
Format settings, ReFrames : 5 frames
Codec ID : V_MPEG4/ISO/AVC
Duration : 1 h 56 min
Bit rate : 13.2 Mb/s
Width : 1 920 pixels
Height : 1 080 pixels
Display aspect ratio : 16:9
Frame rate mode : Constant
Frame rate : 23.976 (24000/1001) FPS
Color space : YUV
Chroma subsampling : 4:2:0
Bit depth : 8 bits
Scan type : Progressive
Bits/(Pixel*Frame) : 0.265
Stream size : 10.7 GiB (74%)
Title : HDTVRip by SOFCJ
Writing library : x264 core 157 r2867+103 0d6443f t_mod_Custom_2 [8-bit@all X86_64]
Encoding settings : cabac=1 / ref=5 / deblock=1:-3:-3 / analyse=0x3:0x133 / me=umh / subme=11 / psy=1 / fade_compensate=0.00 / psy_rd=1.00:0.00 / mixed_ref=1 / me_range=32 / chroma_me=1 / trellis=2 / 8x8dct=1 / cqm=0 / deadzone=21,11 / fast_pskip=0 / chroma_qp_offset=0 / threads=12 / lookahead_threads=3 / sliced_threads=0 / nr=0 / decimate=0 / interlaced=0 / bluray_compat=0 / constrained_intra=0 / fgo=0 / bframes=10 / b_pyramid=2 / b_adapt=2 / b_bias=0 / direct=3 / weightb=1 / open_gop=0 / weightp=2 / keyint=250 / keyint_min=23 / scenecut=40 / intra_refresh=0 / rc_lookahead=60 / rc=crf / mbtree=1 / crf=17.9000 / qcomp=0.65 / qpmin=0:0:0 / qpmax=69:69:69 / qpstep=4 / vbv_maxrate=50000 / vbv_bufsize=62500 / crf_max=0.0 / nal_hrd=none / filler=0 / ip_ratio=1.30 / aq=1:1.00 / aq-sensitivity=10.00 / aq-factor=1.00:1.00:1.00 / aq2=0 / aq3=0
Language : English
Default : Yes
Forced : No
Color range : Limited
Color primaries : BT.709
Transfer characteristics : BT.709
Matrix coefficients : BT.709

Audio #1
ID : 2
Format : AC-3
Format/Info : Audio Coding 3
Commercial name : Dolby Digital
Codec ID : A_AC3
Duration : 1 h 56 min
Bit rate mode : Constant
Bit rate : 640 kb/s
Channel(s) : 6 channels
Channel positions : Front: L C R, Side: L R, LFE
Sampling rate : 48.0 kHz
Frame rate : 31.250 FPS (1536 SPF)
Bit depth : 16 bits
Compression mode : Lossy
Stream size : 533 MiB (4%)
Title : Dub
Language : Russian
Service kind : Complete Main
Default : Yes
Forced : No

Audio #2
ID : 3
Format : AC-3
Format/Info : Audio Coding 3
Commercial name : Dolby Digital
Codec ID : A_AC3
Duration : 1 h 56 min
Bit rate mode : Constant
Bit rate : 384 kb/s
Channel(s) : 6 channels
Channel positions : Front: L C R, Side: L R, LFE
Sampling rate : 48.0 kHz
Frame rate : 31.250 FPS (1536 SPF)
Bit depth : 16 bits
Compression mode : Lossy
Stream size : 320 MiB (2%)
Title : MVO [DVD]
Language : Russian
Service kind : Complete Main
Default : No
Forced : No

Audio #3
ID : 4
Format : AC-3
Format/Info : Audio Coding 3
Commercial name : Dolby Digital
Codec ID : A_AC3
Duration : 1 h 56 min
Bit rate mode : Constant
Bit rate : 192 kb/s
Channel(s) : 2 channels
Channel positions : Front: L R
Sampling rate : 48.0 kHz
Frame rate : 31.250 FPS (1536 SPF)
Bit depth : 16 bits
Compression mode : Lossy
Stream size : 160 MiB (1%)
Title : MVO [REN-TV]
Language : Russian
Service kind : Complete Main
Default : No
Forced : No

Audio #4
ID : 5
Format : AC-3
Format/Info : Audio Coding 3
Commercial name : Dolby Digital
Codec ID : A_AC3
Duration : 1 h 56 min
Bit rate mode : Constant
Bit rate : 640 kb/s
Channel(s) : 6 channels
Channel positions : Front: L C R, Side: L R, LFE
Sampling rate : 48.0 kHz
Frame rate : 31.250 FPS (1536 SPF)
Bit depth : 16 bits
Compression mode : Lossy
Stream size : 533 MiB (4%)
Title : DVO [Гланц и Королева]
Language : Russian
Service kind : Complete Main
Default : No
Forced : No

Audio #5
ID : 6
Format : AC-3
Format/Info : Audio Coding 3
Commercial name : Dolby Digital
Codec ID : A_AC3
Duration : 1 h 56 min
Bit rate mode : Constant
Bit rate : 192 kb/s
Channel(s) : 2 channels
Channel positions : Front: L R
Sampling rate : 48.0 kHz
Frame rate : 31.250 FPS (1536 SPF)
Bit depth : 16 bits
Compression mode : Lossy
Stream size : 160 MiB (1%)
Title : DVO [Universal Channel]
Language : Russian
Service kind : Complete Main
Default : No
Forced : No

Audio #6
ID : 7
Format : DTS
Format/Info : Digital Theater Systems
Codec ID : A_DTS
Duration : 1 h 56 min
Bit rate mode : Constant
Bit rate : 755 kb/s
Channel(s) : 6 channels
Channel positions : Front: L C R, Side: L R, LFE
Sampling rate : 48.0 kHz
Frame rate : 93.750 FPS (512 SPF)
Bit depth : 24 bits
Compression mode : Lossy
Stream size : 629 MiB (4%)
Title : AVO [А. Гаврилов]
Language : Russian
Default : No
Forced : No

Audio #7
ID : 8
Format : AC-3
Format/Info : Audio Coding 3
Commercial name : Dolby Digital
Codec ID : A_AC3
Duration : 1 h 56 min
Bit rate mode : Constant
Bit rate : 192 kb/s
Channel(s) : 2 channels
Channel positions : Front: L R
Sampling rate : 48.0 kHz
Frame rate : 31.250 FPS (1536 SPF)
Bit depth : 16 bits
Compression mode : Lossy
Stream size : 160 MiB (1%)
Title : AVO [С. Визгунов]
Language : Russian
Service kind : Complete Main
Default : No
Forced : No

Audio #8
ID : 9
Format : AC-3
Format/Info : Audio Coding 3
Commercial name : Dolby Digital
Codec ID : A_AC3
Duration : 1 h 56 min
Bit rate mode : Constant
Bit rate : 640 kb/s
Channel(s) : 6 channels
Channel positions : Front: L C R, Side: L R, LFE
Sampling rate : 48.0 kHz
Frame rate : 31.250 FPS (1536 SPF)
Bit depth : 16 bits
Compression mode : Lossy
Stream size : 533 MiB (4%)
Title : AVO [А. Матвеев]
Language : Russian
Service kind : Complete Main
Default : No
Forced : No

Audio #9
ID : 10
Format : AC-3
Format/Info : Audio Coding 3
Commercial name : Dolby Digital
Codec ID : A_AC3
Duration : 1 h 56 min
Bit rate mode : Constant
Bit rate : 640 kb/s
Channel(s) : 6 channels
Channel positions : Front: L C R, Side: L R, LFE
Sampling rate : 48.0 kHz
Frame rate : 31.250 FPS (1536 SPF)
Bit depth : 16 bits
Compression mode : Lossy
Stream size : 533 MiB (4%)
Title : Original
Language : English
Service kind : Complete Main
Default : No
Forced : No

Audio #10
ID : 11
Format : AC-3
Format/Info : Audio Coding 3
Commercial name : Dolby Digital
Codec ID : A_AC3
Duration : 1 h 56 min
Bit rate mode : Constant
Bit rate : 192 kb/s
Channel(s) : 2 channels
Channel positions : Front: L R
Sampling rate : 48.0 kHz
Frame rate : 31.250 FPS (1536 SPF)
Bit depth : 16 bits
Compression mode : Lossy
Stream size : 160 MiB (1%)
Title : Комментарии актеров
Language : English
Service kind : Complete Main
Default : No
Forced : No

Audio #11
ID : 12
Format : AC-3
Format/Info : Audio Coding 3
Commercial name : Dolby Digital
Codec ID : A_AC3
Duration : 1 h 56 min
Bit rate mode : Constant
Bit rate : 192 kb/s
Channel(s) : 2 channels
Channel positions : Front: L R
Sampling rate : 48.0 kHz
Frame rate : 31.250 FPS (1536 SPF)
Bit depth : 16 bits
Compression mode : Lossy
Stream size : 160 MiB (1%)
Title : Комментарии режиссера и сценариста
Language : English
Service kind : Complete Main
Default : No
Forced : No

Text #1
ID : 13
Format : UTF-8
Codec ID : S_TEXT/UTF8
Codec ID/Info : UTF-8 Plain Text
Duration : 1 h 50 min
Bit rate : 88 b/s
Count of elements : 1156
Stream size : 71.5 KiB (0%)
Language : Russian
Default : No
Forced : No

Text #2
ID : 14
Format : UTF-8
Codec ID : S_TEXT/UTF8
Codec ID/Info : UTF-8 Plain Text
Duration : 1 h 56 min
Bit rate : 49 b/s
Count of elements : 1132
Stream size : 42.6 KiB (0%)
Language : English
Default : No
Forced : No
РазвернутьСкриншоты
[center] [/center]
У вас нет необходимых прав для просмотра вложений в этом сообщении.

Ответить Вложения 1

Кто сейчас на конференции

Сейчас этот форум просматривают: нет зарегистрированных пользователей и 0 гостей