Лиззи Магуайр / The Lizzie McGuire Movie [Мелодрама, комедия, приключения, 2003] WEB-DL 1080p, Mvo

Торрент раздачи, не нашедшие своего раздела / Torrent distribution, not found its section
Ответить
Торрент Сидеров Личеров Размер
torrent_649260.torrent
0 0 3.62 ГБ

Автор темы
salma3
Супермодератор
Сообщения: 92
Зарегистрирован: 20 авг 2018, 11:57
Репутация: 0
Russia

Лиззи Магуайр / The Lizzie McGuire Movie [Мелодрама, комедия, приключения, 2003] WEB-DL 1080p, Mvo

#1

Сообщение salma3 » 25 авг 2018, 10:50

Год выхода: 2003
Жанр: Мелодрама, комедия, приключения
Режиссер: Джим Фолл

В ролях: Хилари Дафф, Адам Лэмберг, Халли Тодд, Роберт Кэрредин, Джейк Томас, Эшли Брилло, Клэйтон Снайдер, Алекс Борштейн, Яни Геллман, Брендан Келли

О фильме:
Тринадцатилетняя школьница Лиззи Магуайер и ее приятели Гордо, Кейт и Эсан собираются оттянуться по полной программе во время их поездки с классом в Италию. Но там случается весьма неожиданное происшествие: девочку ошибочно принимают за итальянскую поп-звезду Изабеллу, да к тому же девушка влюбляется в бывшего дружка Изабеллы Паоло. Когда родители Лизи обо всем узнают, они вместе с ее братом Мэттом срочно вылетают в Италию. Но Лиззи уже не та закомплексованная девочка-подросток, кем была раньше, она до такой степени вжилась в роль певицы, что и на самом деле стала самой настоящей звездой.



Страна: США
Продолжительность: 01:33:51
Перевод: Профессиональный (многоголосый, закадровый)

Файл
Формат: MKV
Кодек: x.264
Качество: WEB-DL (1080p)
Видео: MPEG-4 AVC, 4493 Кбит/с, 1912x808, 23.976 fps
Аудио #1: AC3, 2 ch, 192 kbps | Многоголосый закадровый, ВидеоСервис |
Аудио #2: AC3, 6 ch, 384 kbps | Многоголосый закадровый, R5 |
Аудио #3: AC3, 6 ch, 448 kbps | оригинал
Субтитры: Русские, английские
MediaInfo:
General
Unique ID : 287633488246382029055646544790586113424 (0xD86431DE8F065F6FD3D0E7641ADFBD90)
Complete name : D:DownloadsВременные файлыЛиззи Магуайр (The Lizzie McGuire Movie).2003.WEB-DL.(1080p).mkv
Format : Matroska
Format version : Version 4 / Version 2
File size : 3.62 GiB
Duration : 1 h 33 min
Overall bit rate : 5 519 kb/s
Encoded date : UTC 2018-08-23 18:04:11
Writing application : mkvmerge v20.0.0 ('I Am The Sun') 64-bit
Writing library : libebml v1.3.5 + libmatroska v1.4.8

Video
ID : 1
Format : AVC
Format/Info : Advanced Video Codec
Format profile : High@L4
Format settings : CABAC / 5 Ref Frames
Format settings, CABAC : Yes
Format settings, ReFrames : 5 frames
Codec ID : V_MPEG4/ISO/AVC
Duration : 1 h 33 min
Bit rate : 4 493 kb/s
Width : 1 912 pixels
Height : 808 pixels
Display aspect ratio : 2.35:1
Frame rate mode : Constant
Frame rate : 23.976 (24000/1001) FPS
Color space : YUV
Chroma subsampling : 4:2:0
Bit depth : 8 bits
Scan type : Progressive
Bits/(Pixel*Frame) : 0.121
Stream size : 2.95 GiB (81%)
Default : Yes
Forced : No
Color range : Limited
Color primaries : BT.709
Transfer characteristics : BT.709
Matrix coefficients : BT.709

Audio #1
ID : 2
Format : AC-3
Format/Info : Audio Coding 3
Commercial name : Dolby Digital
Codec ID : A_AC3
Duration : 1 h 33 min
Bit rate mode : Constant
Bit rate : 192 kb/s
Channel(s) : 2 channels
Channel positions : Front: L R
Sampling rate : 48.0 kHz
Frame rate : 31.250 FPS (1536 SPF)
Bit depth : 16 bits
Compression mode : Lossy
Stream size : 129 MiB (3%)
Title : MVO (Многоголосый - ВидеоСервис) AC-3, 192 kbps, 2ch
Language : Russian
Service kind : Complete Main
Default : No
Forced : No

Audio #2
ID : 3
Format : AC-3
Format/Info : Audio Coding 3
Commercial name : Dolby Digital
Codec ID : A_AC3
Duration : 1 h 33 min
Bit rate mode : Constant
Bit rate : 384 kb/s
Channel(s) : 6 channels
Channel positions : Front: L C R, Side: L R, LFE
Sampling rate : 48.0 kHz
Frame rate : 31.250 FPS (1536 SPF)
Bit depth : 16 bits
Compression mode : Lossy
Stream size : 258 MiB (7%)
Title : MVO - R5 (Многоголосый - Телеканал R5) AC-3, 384 kbps, 6ch
Language : Russian
Service kind : Complete Main
Default : Yes
Forced : No

Audio #3
ID : 4
Format : AC-3
Format/Info : Audio Coding 3
Commercial name : Dolby Digital
Codec ID : A_AC3
Duration : 1 h 33 min
Bit rate mode : Constant
Bit rate : 448 kb/s
Channel(s) : 6 channels
Channel positions : Front: L C R, Side: L R, LFE
Sampling rate : 48.0 kHz
Frame rate : 31.250 FPS (1536 SPF)
Bit depth : 16 bits
Compression mode : Lossy
Stream size : 301 MiB (8%)
Title : 448 Kbps, 6ch
Language : English
Service kind : Complete Main
Default : No
Forced : No

Text #1
ID : 5
Format : UTF-8
Codec ID : S_TEXT/UTF8
Codec ID/Info : UTF-8 Plain Text
Duration : 1 h 28 min
Bit rate : 87 b/s
Count of elements : 787
Stream size : 56.6 KiB (0%)
Title : Rus
Language : Russian
Default : Yes
Forced : No

Text #2
ID : 6
Format : UTF-8
Codec ID : S_TEXT/UTF8
Codec ID/Info : UTF-8 Plain Text
Duration : 1 h 33 min
Bit rate : 97 b/s
Count of elements : 2163
Stream size : 66.6 KiB (0%)
Title : SDH - Full
Language : English
Default : No
Forced : No

Menu
00:00:00.000 : en:Opening Credits/Graduation Day
00:08:43.000 : en:Rome, The Eternal City
00:15:07.000 : en:Lizzie's Wish Comes True
00:22:46.000 : en:Adventures
00:29:54.000 : en:Paolo Asks For Help
00:36:37.000 : en:Shopping Spree
00:48:45.000 : en:Promises
00:59:30.000 : en:"What Dreams Are Made Of"
01:06:19.000 : en:Shocking Discoveries
01:16:50.000 : en:"What Dreams Are REALLY Made Of"
01:24:27.000 : en:The After Party
01:27:44.000 : en:Capturing The Moment/End Credits
Скриншоты

Релиз от: CergMark
У вас нет необходимых прав для просмотра вложений в этом сообщении.

Ответить

Кто сейчас на конференции

Сейчас этот форум просматривают: нет зарегистрированных пользователей и 0 гостей