Вход и выход / In & Out [мелодрама, комедия, 1997] DVDRip, Mvo

Торрент раздачи, не нашедшие своего раздела / Torrent distribution, not found its section
Ответить
Торрент Сидеров Личеров Размер
torrent_649690.torrent
0 0 1.37 ГБ

Автор темы
salma3
Супермодератор
Сообщения: 92
Зарегистрирован: 20 авг 2018, 11:57
Репутация: 0
Russia

Вход и выход / In & Out [мелодрама, комедия, 1997] DVDRip, Mvo

#1

Сообщение salma3 » 27 авг 2018, 09:59

Год выпуска: 1997
Жанр: мелодрама, комедия
Режиссер: Фрэнк Оз

В ролях:Кевин Клайн, Джоан Кьюсак, Том Селлек, Мэтт Диллон, Дебби Рейнолдс, Уилфорд Бримли, Боб Ньюхарт, Грегори Джбара, Шалом Харлоу

Описание:
Накануне свадьбы скромного преподавателя литературы в провинциальном городке его выпускник, ныне голливудская кинозвезда, на церемонии вручения премии «Оскар» в порыве чувств на весь мир произносит слова благодарности своему «голубому» другу учителю. Маленький городок в шоке. Казалось бы, жизнь и карьера героя разбиты… Но тут на помощь приходит тот самый оскаровский лауреат… Невероятные события сотрясают тихий городишко…



Страна:США
Продолжительность: 01:26:43
Перевод: Профессиональный (многоголосый, закадровый

Качество: DVDRip
Видео: 704x528 (4:3), 25.000 fps, XviD ~1 764 kbps avg
Аудио: 48.0 kHz, AC3 Dolby Digital, 3/2 (L,C,R,l,r) + LFE ch, ~384 kbps

Релиз от:
Media Info
General
Complete name : Vhod.i.vyhod.1997.XviD.DVDRip.avi
Format : AVI
Format/Info : Audio Video Interleave
File size : 1.37 GiB
Duration : 1 h 27 min
Overall bit rate : 2 246 kb/s
Writing application : VirtualDubMod 1.5.10.2 (build 2540/release)
Writing library : VirtualDubMod build 2540/release

Video
ID : 0
Format : MPEG-4 Visual
Format profile : Advanced Simple@L5
Format settings, BVOP : 1
Format settings, QPel : No
Format settings, GMC : No warppoints
Format settings, Matrix : Default (MPEG)
Codec ID : XVID
Codec ID/Hint : XviD
Duration : 1 h 27 min
Bit rate : 1 764 kb/s
Width : 704 pixels
Height : 528 pixels
Display aspect ratio : 4:3
Frame rate : 25.000 FPS
Color space : YUV
Chroma subsampling : 4:2:0
Bit depth : 8 bits
Scan type : Progressive
Compression mode : Lossy
Bits/(Pixel*Frame) : 0.190
Stream size : 1.07 GiB (79%)
Writing library : XviD 1.2.0.dev47 (UTC 2006-11-01)

Audio
ID : 1
Format : AC-3
Format/Info : Audio Coding 3
Format settings, Endianness : Big
Codec ID : 2000
Duration : 1 h 27 min
Bit rate mode : Constant
Bit rate : 384 kb/s
Channel(s) : 6 channels
Channel positions : Front: L C R, Side: L R, LFE
Sampling rate : 48.0 kHz
Frame rate : 31.250 FPS (1536 SPF)
Bit depth : 16 bits
Compression mode : Lossy
Stream size : 240 MiB (17%)
Alignment : Split accross interleaves
Service kind : Complete Main
Скриншоты
У вас нет необходимых прав для просмотра вложений в этом сообщении.

Ответить

Кто сейчас на конференции

Сейчас этот форум просматривают: нет зарегистрированных пользователей и 0 гостей