На пути к Грейс / Running for Grace [Мелодрама, семейный, 2018] WEBRip, Dvo

Раздел для видео роликов, фильмов, мультфильмов... в общем для любого видео / Section for videos, movies, cartoons... in General for any video
Торрент Сидеров Личеров Размер
torrent_649617.torrent
0 0 1.45 ГБ

Автор темы
salma3
Супермодератор
Сообщения: 92
Зарегистрирован: 20 авг 2018, 11:57
Репутация: 0
Russia

На пути к Грейс / Running for Grace [Мелодрама, семейный, 2018] WEBRip, Dvo

#1

Сообщение salma3 » 27 авг 2018, 10:02

Год выхода: 2018
Жанр: Мелодрама, семейный
Режиссер: Дэвид Л. Каннингэм

В ролях: Райан Поттер, Джеймс Кэвизел, Мэтт Диллон, Джульетт Миллс, Оливия Ричи, Ник Борэйни, Стелио Саванте, Пейтон Дилвег, Коул Такиу, Сара Наби Ким и другие

О фильме:
Действие фильма разворачивается в 20-х годах прошлого века на гавайских кофейных полях. Сюжет строится вокруг мальчика, который преодолевает препятствия на пути к запретной любви.



Страна: США, Kona Snow Pictures,Public House Films
Продолжительность: 01:50:58
Перевод: Любительский (двухголосый закадровый) | HiWay Grope

Файл
Кодек: XviD
Качество: WEBRip
Видео: 720x304, 23.976 fps, ~1478 kbps, 0.28 bit/pixel
Аудио rus: AC3, 48 kHz, 6 ch, 384 Kbps

Реклама: присутствует

Семпл
РазвернутьMediaInfo:
General
Complete name : D:Running.for.Grace.2018.WEBRip.HiWayGropeRunning.for.Grace.2018.WEBRip.HiWayGrope.avi
Format : AVI
Format/Info : Audio Video Interleave
File size : 1.45 GiB
Duration : 1 h 50 min
Overall bit rate : 1 872 kb/s
Writing application : VirtualDubMod 1.5.10.3 (build 2550/release)
Writing library : VirtualDubMod build 2550/release

Video
ID : 0
Format : MPEG-4 Visual
Format profile : Simple@L5
Format settings : BVOP1
Format settings, BVOP : 1
Format settings, QPel : No
Format settings, GMC : No warppoints
Format settings, Matrix : Default (MPEG)
Codec ID : XVID
Codec ID/Hint : XviD
Duration : 1 h 50 min
Bit rate : 1 478 kb/s
Width : 720 pixels
Height : 304 pixels
Display aspect ratio : 2.35:1
Frame rate : 23.976 (24000/1001) FPS
Color space : YUV
Chroma subsampling : 4:2:0
Bit depth : 8 bits
Scan type : Progressive
Compression mode : Lossy
Bits/(Pixel*Frame) : 0.282
Stream size : 1.15 GiB (79%)
Writing library : XviD 67

Audio
ID : 1
Format : AC-3
Format/Info : Audio Coding 3
Codec ID : 2000
Duration : 1 h 50 min
Bit rate mode : Constant
Bit rate : 384 kb/s
Channel(s) : 6 channels
Channel positions : Front: L C R, Side: L R, LFE
Sampling rate : 48.0 kHz
Frame rate : 31.250 FPS (1536 SPF)
Bit depth : 16 bits
Compression mode : Lossy
Stream size : 305 MiB (21%)
Alignment : Split accross interleaves
Interleave, duration : 42 ms (1.00 video frame)
Interleave, preload duration : 500 ms
Service kind : Complete Main
РазвернутьСкриншоты

Релиз от: HiWay Grope
У вас нет необходимых прав для просмотра вложений в этом сообщении.

Ответить Вложения 1

Кто сейчас на конференции

Сейчас этот форум просматривают: нет зарегистрированных пользователей и 0 гостей