Невидимка / In Darkness [Триллер, 2018] BDRip 1080p, Dub [iTunes]

Раздел для видео роликов, фильмов, мультфильмов... в общем для любого видео / Section for videos, movies, cartoons... in General for any video
Торрент Сидеров Личеров Размер
torrent_649673.torrent
73 6 8.63 ГБ

Автор темы
salma3
Супермодератор
Сообщения: 92
Зарегистрирован: 20 авг 2018, 11:57
Репутация: 0
Russia

Невидимка / In Darkness [Триллер, 2018] BDRip 1080p, Dub [iTunes]

#1

Сообщение salma3 » 27 авг 2018, 10:03

Год выхода: 2018
Жанр: Триллер
Режиссер: Энтони Бирн

В ролях: Натали Дормер, Эмили Ратаковски, Эд Скрейн, Джоэли Ричардсон, Джеймс Космо, Нил Мэскелл, Эмбер Андерсон, Ян Бейвут, Бернард Коллако

О фильме:
В последнее время слепая пианистка София стала все чаще слышать посторонний мужской голос, доносящийся из квартиры Вероники, её соседки сверху. Очередной визит незнакомца заканчивается ссорой, в процессе которой Вероника выпадает из окна своей квартиры и погибает. Полиция предполагает, что девушка совершила самоубийство, и лишь София догадывается, что же произошло на самом деле. Она оказывается втянута в опасную игру, в которой замешаны международные преступники и мафия, вот только они еще не знают, что у девушки на этот счет уже есть свои планы...



Страна: Великобритания, США
Продолжительность: 01:41:37
Перевод: Дублированный | iTunes

Файл
Качество: BDRip 1080p
Видео: MPEG-4 AVC, 1920x800, 11.0 Mbit/s, 23.976 fps
Аудио #01: 48 kHz, AC3, 5.1, 384 Kbps | iTunes | RUS
Аудио #02: 48 kHz, DTS, 5.1, 1510 Kbps | Оригинал | ENG
Субтитры: Русские (full), английские
РазвернутьСкриншоты
РазвернутьMI
General
Unique ID : 223339847567533010134414241376202052449 (0xA805B0A52F4BC883B36712F85D62D361)
Complete name : D:Video111In.Darkness.2018.BDRip.1080p.ExKinoRay.mkv
Format : Matroska
Format version : Version 4 / Version 2
File size : 8.63 GiB
Duration : 1 h 41 min
Overall bit rate : 12.1 Mb/s
Movie name : In Darkness 2018 OT from ExKinoRay
Encoded date : UTC 2018-08-26 22:03:31
Writing application : mkvmerge v7.3.0 ('Nouages') 64bit built on Oct 22 2014 18:53:34
Writing library : libebml v1.3.0 + libmatroska v1.4.1

Video
ID : 1
Format : AVC
Format/Info : Advanced Video Codec
Format profile : High@L4.1
Format settings : CABAC / 5 Ref Frames
Format settings, CABAC : Yes
Format settings, ReFrames : 5 frames
Codec ID : V_MPEG4/ISO/AVC
Duration : 1 h 41 min
Bit rate : 11.0 Mb/s
Width : 1 920 pixels
Height : 800 pixels
Display aspect ratio : 2.40:1
Frame rate mode : Constant
Frame rate : 23.976 (24000/1001) FPS
Color space : YUV
Chroma subsampling : 4:2:0
Bit depth : 8 bits
Scan type : Progressive
Bits/(Pixel*Frame) : 0.299
Stream size : 7.81 GiB (90%)
Writing library : x264 core 155 r2901 7d0ff22
Encoding settings : cabac=1 / ref=5 / deblock=1:-3:-3 / analyse=0x3:0x133 / me=umh / subme=10 / psy=1 / psy_rd=1.08:0.09 / mixed_ref=1 / me_range=24 / chroma_me=1 / trellis=2 / 8x8dct=1 / cqm=0 / deadzone=21,11 / fast_pskip=0 / chroma_qp_offset=-3 / threads=12 / lookahead_threads=2 / sliced_threads=0 / nr=0 / decimate=0 / interlaced=0 / bluray_compat=0 / constrained_intra=0 / bframes=8 / b_pyramid=2 / b_adapt=2 / b_bias=0 / direct=3 / weightb=1 / open_gop=0 / weightp=2 / keyint=230 / keyint_min=23 / scenecut=40 / intra_refresh=0 / rc_lookahead=40 / rc=2pass / mbtree=0 / bitrate=11000 / ratetol=1.0 / qcomp=0.60 / qpmin=0 / qpmax=51 / qpstep=4 / cplxblur=20.0 / qblur=0.5 / vbv_maxrate=50000 / vbv_bufsize=62000 / nal_hrd=none / filler=0 / ip_ratio=1.40 / pb_ratio=1.30 / aq=2:1.00
Language : English
Default : Yes
Forced : No

Audio #1
ID : 2
Format : AC-3
Format/Info : Audio Coding 3
Commercial name : Dolby Digital
Codec ID : A_AC3
Duration : 1 h 41 min
Bit rate mode : Constant
Bit rate : 384 kb/s
Channel(s) : 6 channels
Channel positions : Front: L C R, Side: L R, LFE
Sampling rate : 48.0 kHz
Frame rate : 31.250 FPS (1536 SPF)
Bit depth : 16 bits
Compression mode : Lossy
Delay relative to video : 3 ms
Stream size : 279 MiB (3%)
Title : iTunes
Language : Russian
Service kind : Complete Main
Default : Yes
Forced : Yes

Audio #2
ID : 3
Format : DTS
Format/Info : Digital Theater Systems
Codec ID : A_DTS
Duration : 1 h 41 min
Bit rate mode : Constant
Bit rate : 768 kb/s
Channel(s) : 6 channels
Channel positions : Front: L C R, Side: L R, LFE
Sampling rate : 48.0 kHz
Frame rate : 93.750 FPS (512 SPF)
Bit depth : 24 bits
Compression mode : Lossy
Stream size : 559 MiB (6%)
Title : Original
Language : English
Default : No
Forced : No

Text #1
ID : 4
Format : UTF-8
Codec ID : S_TEXT/UTF8
Codec ID/Info : UTF-8 Plain Text
Duration : 1 h 33 min
Bit rate : 64 b/s
Count of elements : 828
Stream size : 44.2 KiB (0%)
Title : Full
Language : Russian
Default : No
Forced : No

Text #2
ID : 5
Format : UTF-8
Codec ID : S_TEXT/UTF8
Codec ID/Info : UTF-8 Plain Text
Duration : 1 h 33 min
Bit rate : 38 b/s
Count of elements : 839
Stream size : 26.5 KiB (0%)
Title : Full
Language : English
Default : No
Forced : No

Text #3
ID : 6
Format : UTF-8
Codec ID : S_TEXT/UTF8
Codec ID/Info : UTF-8 Plain Text
Duration : 1 h 34 min
Bit rate : 39 b/s
Count of elements : 912
Stream size : 27.6 KiB (0%)
Title : SDH
Language : English
Default : No
Forced : No

Menu
00:00:00.000 : en:Chapter 1
00:06:30.139 : en:Chapter 2
00:12:33.461 : en:Chapter 3
00:17:43.562 : en:Chapter 4
00:23:38.250 : en:Chapter 5
00:28:46.641 : en:Chapter 6
00:36:22.722 : en:Chapter 7
00:42:06.357 : en:Chapter 8
00:48:10.012 : en:Chapter 9
00:54:41.861 : en:Chapter 10
00:59:12.298 : en:Chapter 11
01:05:19.707 : en:Chapter 12
01:09:29.665 : en:Chapter 13
01:16:00.764 : en:Chapter 14
01:22:38.370 : en:Chapter 15
01:27:33.456 : en:Chapter 16
Релиз от: Автор релиза:
У вас нет необходимых прав для просмотра вложений в этом сообщении.

Ответить Вложения 1

Кто сейчас на конференции

Сейчас этот форум просматривают: нет зарегистрированных пользователей и 1 гость