Дальше по коридору / Down a Dark Hall [Ужасы, фэнтези, триллер, 2018] WEB-DL 1080p, Mvo

Торрент раздачи, не нашедшие своего раздела / Torrent distribution, not found its section
Ответить
Торрент Сидеров Личеров Размер
torrent_650017.torrent
0 0 3.51 ГБ

Автор темы
salma3
Супермодератор
Сообщения: 92
Зарегистрирован: 20 авг 2018, 11:57
Репутация: 0
Russia

Дальше по коридору / Down a Dark Hall [Ужасы, фэнтези, триллер, 2018] WEB-DL 1080p, Mvo

#1

Сообщение salma3 » 29 авг 2018, 11:17

Год выхода: 2018
Жанр: Ужасы, фэнтези, триллер
Режиссер: Родриго Кортес

В ролях: Анна-София Робб, Ума Турман, Изабель Фурман, Виктория Моролес, Ной Сильвер, Тейлор Расселл, Рози Дэй, Ребекка Фронт, Джоди Мэй, Пип Торренс

О фильме:
Трудный подросток Кит Горди никак не может смириться со смертью отца, которая произошла несколько лет назад. Девушка бунтует и своим поведением добивается того, что ее отправляют в школу-интернат Блэквуд. Кроме нее туда прибывают еще четыре проблемные ученицы, в каждой из которых директриса мадам Дюрэ намерена увидеть скрытый талант и вытащить его наружу. Девушки вскоре и впрямь обнаруживают недюжинные способности в разных областях науки и искусства, но Кит чувствует, что что-то тут не так.



Страна: Испания, США
Продолжительность: 01:36:23
Перевод: Профессиональный (многоголосый, закадровый) | HDrezka Studio

Файл
Кодек: H.264
Качество: WEB-DL 1080p | HDrezka Studio
Видео: AVC/H.264, 1908x788, ~4628 kbps, 23.976 fps
Звук:
Аудио 1: AC3, 2 ch, 192 Kbps - Русский
Аудио 2: AC3, 6 ch, 384 Kbps - Английский
Субтитры: Русские, английские
Mediainfo
Общее
Уникальный идентификатор : 33659483466275280790487542197754139829 (0x195294A98B2C18109C9746C4C6BE14B5)
Полное имя : Down a Dark Hall.2018.WEB-DL.1080p.W.mkv
Формат : Matroska
Версия формата : Version 4 / Version 2
Размер файла : 3,51 Гбайт
Продолжительность : 1 ч. 36 м.
Общий поток : 5207 Кбит/сек
Дата кодирования : UTC 2018-08-28 18:30:02
Программа кодирования : mkvmerge v23.0.0 ('The Bride Said No') 64-bit
Библиотека кодирования : libebml v1.3.6 + libmatroska v1.4.9

Видео
Идентификатор : 1
Формат : AVC
Формат/Информация : Advanced Video Codec
Профиль формата : High@L4
Настройки формата : CABAC / 5 Ref Frames
Параметр CABAC формата : Да
Параметр RefFrames формата : 5 кадров
Идентификатор кодека : V_MPEG4/ISO/AVC
Продолжительность : 1 ч. 36 м.
Битрейт : 4628 Кбит/сек
Ширина : 1908 пикселей
Высота : 788 пикселей
Соотношение сторон : 2,40:1
Режим частоты кадров : Постоянный
Частота кадров : 23,976 (24000/1001) кадра/сек
Цветовое пространство : YUV
Субдискретизация насыщенности : 4:2:0
Битовая глубина : 8 бит
Тип развёртки : Прогрессивная
Бит/(Пиксели*Кадры) : 0.128
Размер потока : 3,12 Гбайт (89%)
Язык : English
Default : Да
Forced : Нет
Цветовой диапазон : Limited
Основные цвета : BT.709
Характеристики трансфера : BT.709
Коэффициенты матрицы : BT.709

Аудио #1
Идентификатор : 2
Формат : AC-3
Формат/Информация : Audio Coding 3
Идентификатор кодека : A_AC3
Продолжительность : 1 ч. 36 м.
Вид битрейта : Постоянный
Битрейт : 192 Кбит/сек
Каналы : 2 канала
Расположение каналов : Front: L R
Частота : 48,0 КГц
Частота кадров : 31,250 кадров/сек (1536 SPF)
Битовая глубина : 16 бит
Метод сжатия : С потерями
Задержка видео : -42 мс.
Размер потока : 132 Мбайт (4%)
Заголовок : MVO | HDrezka Studio
Язык : Russian
ServiceKind : Complete Main
Default : Да
Forced : Нет

Аудио #2
Идентификатор : 3
Формат : AC-3
Формат/Информация : Audio Coding 3
Идентификатор кодека : A_AC3
Продолжительность : 1 ч. 36 м.
Вид битрейта : Постоянный
Битрейт : 384 Кбит/сек
Каналы : 6 каналов
Расположение каналов : Front: L C R, Side: L R, LFE
Частота : 48,0 КГц
Частота кадров : 31,250 кадров/сек (1536 SPF)
Битовая глубина : 16 бит
Метод сжатия : С потерями
Задержка видео : -42 мс.
Размер потока : 265 Мбайт (7%)
Язык : English
ServiceKind : Complete Main
Default : Нет
Forced : Нет

Текст #1
Идентификатор : 4
Формат : UTF-8
Идентификатор кодека : S_TEXT/UTF8
Идентификатор кодека/Информация : UTF-8 Plain Text
Продолжительность : 1 ч. 27 м.
Битрейт : 79 бит/сек
ElementCount : 954
Размер потока : 50,7 Кбайт (0%)
Язык : Russian
Default : Нет
Forced : Нет

Текст #2
Идентификатор : 5
Формат : UTF-8
Идентификатор кодека : S_TEXT/UTF8
Идентификатор кодека/Информация : UTF-8 Plain Text
Продолжительность : 1 ч. 27 м.
Битрейт : 44 бит/сек
ElementCount : 954
Размер потока : 28,6 Кбайт (0%)
Язык : English
Default : Нет
Forced : Нет

Меню
00:00:00.000 : en:1
00:07:48.000 : en:2
00:17:56.000 : en:3
00:27:55.000 : en:4
00:36:31.000 : en:5
00:46:36.000 : en:6
00:55:54.000 : en:7
01:04:01.000 : en:8
01:16:01.000 : en:9
01:29:20.000 : en:10
Скриншоты
У вас нет необходимых прав для просмотра вложений в этом сообщении.

Ответить

Кто сейчас на конференции

Сейчас этот форум просматривают: нет зарегистрированных пользователей и 1 гость