Райское озеро / Eden Lake [Ужасы, триллер, 2008] WEB-DLRip 720p, Dub [Open Matte]

Раздел для видео роликов, фильмов, мультфильмов... в общем для любого видео / Section for videos, movies, cartoons... in General for any video
Торрент Сидеров Личеров Размер
torrent_650028.torrent
0 1 6.13 ГБ

Автор темы
salma3
Супермодератор
Сообщения: 92
Зарегистрирован: 20 авг 2018, 11:57
Репутация: 0
Russia

Райское озеро / Eden Lake [Ужасы, триллер, 2008] WEB-DLRip 720p, Dub [Open Matte]

#1

Сообщение salma3 » 29 авг 2018, 11:18

Год выпуска: 2008
Жанр: Ужасы, триллер
Выпущено: Великобритания, Rollercoaster Films
Продолжительность: 01:31:02
Перевод: Дублированный, профессиональный двухголосый, авторский одноголосый
Режиссер: Джеймс Уоткинс
В ролях: Келли Райлли, Майкл Фассбендер, Джек О`Коннелл, Томас Тургус, Финн Аткинс, Джеймс Берроуз, Том Гилл, Джумэйн Хантер, Шон Дули, Тара Эллис

О фильме
Молодая парочка едет за город, чтобы провести романтический уикенд на берегу Райского озера вдали от людей, в диком лесу. Стив и Дженни планируют пожениться, прожить долго и умереть в один день. Никто из них не думал, что страшная смерть уже близко, и этот день наступит завтра… Шайка тупых и агрессивных подростков, шарившая по лесу в поисках приключений, натыкается на лагерь «молодоженов». Чтобы повеселиться и позлить «взрослых», они крадут их вещи, ломают автомобиль и в конце концов нападают на Стива. Войдя в раж кровавой расправы, они уже не могут остановиться...



Файл
Качество: WEB-DLRip 720p
Видео: MPEG-4 AVC, 1280x720 (16:9), 7521 kbps, 23.976 fps
Аудио 1: Russian: 48 kHz, AC3, 5.1 ch, 384 kbps - DUB, R5
Аудио 2: Russian: 48 kHz, AC3, 5.1 ch, 448 kbps - DVO
Аудио 3: Russian: 48 kHz, AC3, 5.1 ch, 448 kbps - AVO, М. Чадов
Аудио 4: English: 48 kHz, AC3, 5.1 ch, 640 kbps - Оригинал
Аудио 5: Ukrainian: 48 kHz, AC3, 2.0 ch, 192 kbps - DVO, 1+1
Субтитры: Русские, английские
Навигация по главам: Есть

Релиз от:
РазвернутьПримечание
• Исходник видео WEB-DL Amazon STARZ - периодически появляется логотип
РазвернутьСкриншоты

РазвернутьMediaInfo
x264 [info]: frame I:901 Avg QP:13.82 size: 205435
x264 [info]: frame P:33656 Avg QP:16.35 size: 74241
x264 [info]: frame B:96396 Avg QP:17.77 size: 25409

======================================

Общее
Уникальный идентификатор : 229368500047373498139545718776580732391 (0xAC8EC42939939144A37AFD6C24E6F5E7)
Полное имя : Райское.озеро.2008.WEB-DLRip.720p.KORSAR.Open.Matte.mkv
Формат : Matroska
Версия формата : Version 2
Размер файла : 6,13 Гбайт
Продолжительность : 1 ч. 31 м.
Общий поток : 9632 Кбит/сек
Дата кодирования : UTC 2017-12-06 14:11:50
Программа кодирования : mkvmerge v5.8.0 ('No Sleep / Pillow') built on Sep 2 2012 15:37:04
Библиотека кодирования : libebml v1.2.3 + libmatroska v1.3.0

Видео
Идентификатор : 1
Формат : AVC
Формат/Информация : Advanced Video Codec
Профиль формата : High@L4.1
Параметр CABAC формата : Да
Параметр ReFrames формата : 9 кадров
Идентификатор кодека : V_MPEG4/ISO/AVC
Продолжительность : 1 ч. 31 м.
Битрейт : 7521 Кбит/сек
Ширина : 1280 пикселей
Высота : 720 пикселей
Соотношение сторон : 16:9
Режим частоты кадров : Постоянный
Частота кадров : 23,976 (24000/1001) кадра/сек
Цветовое пространство : YUV
Субдискретизация насыщенности : 4:2:0
Битовая глубина : 8 бит
Тип развёртки : Прогрессивная
Бит/(Пиксели*Кадры) : 0.340
Размер потока : 4,66 Гбайт (76%)
Заголовок : RIP | MZMA
Библиотека кодирования : x264 core 152 r2851kMod ba24899
Настройки программы : cabac=1 / ref=9 / deblock=1:-3:-2 / analyse=0x3:0x113 / me=umh / subme=11 / psy=1 / fade_compensate=0.00 / psy_rd=1.00:0.00 / mixed_ref=1 / me_range=48 / chroma_me=1 / trellis=2 / 8x8dct=1 / cqm=0 / deadzone=21,11 / fast_pskip=0 / chroma_qp_offset=-2 / threads=6 / lookahead_threads=1 / sliced_threads=0 / nr=0 / decimate=0 / interlaced=0 / bluray_compat=0 / constrained_intra=0 / bframes=16 / b_pyramid=2 / b_adapt=2 / b_bias=0 / direct=3 / weightb=1 / open_gop=0 / weightp=2 / keyint=240 / keyint_min=23 / scenecut=40 / intra_refresh=0 / rc_lookahead=40 / rc=2pass / mbtree=0 / bitrate=7521 / ratetol=1.0 / qcomp=0.60 / qpmin=0 / qpmax=69 / qpstep=4 / cplxblur=20.0 / qblur=0.5 / vbv_maxrate=50000 / vbv_bufsize=62500 / nal_hrd=none / filler=0 / ip_ratio=1.40 / pb_ratio=1.30 / aq=1:1.00
Язык : English
Default : Да
Forced : Нет
Цветовой диапазон : Limited
Основные цвета : BT.709
Характеристики трансфера : BT.709
Коэффициенты матрицы : BT.709

Аудио #1
Идентификатор : 2
Формат : AC-3
Формат/Информация : Audio Coding 3
Параметр Endianness формата : Big
Идентификатор кодека : A_AC3
Продолжительность : 1 ч. 31 м.
Вид битрейта : Постоянный
Битрейт : 384 Кбит/сек
Каналы : 6 каналов
Расположение каналов : Front: L C R, Side: L R, LFE
Частота : 48,0 КГц
Частота кадров : 31,250 кадров/сек (1536 spf)
Битовая глубина : 16 бит
Метод сжатия : С потерями
Размер потока : 250 Мбайт (4%)
Заголовок : DUB, R5
Язык : Russian
Default : Да
Forced : Нет

Аудио #2
Идентификатор : 3
Формат : AC-3
Формат/Информация : Audio Coding 3
Параметр Endianness формата : Big
Идентификатор кодека : A_AC3
Продолжительность : 1 ч. 31 м.
Вид битрейта : Постоянный
Битрейт : 448 Кбит/сек
Каналы : 6 каналов
Расположение каналов : Front: L C R, Side: L R, LFE
Частота : 48,0 КГц
Частота кадров : 31,250 кадров/сек (1536 spf)
Битовая глубина : 16 бит
Метод сжатия : С потерями
Размер потока : 292 Мбайт (5%)
Заголовок : DVO
Язык : Russian
Default : Нет
Forced : Нет

Аудио #3
Идентификатор : 4
Формат : AC-3
Формат/Информация : Audio Coding 3
Параметр Endianness формата : Big
Идентификатор кодека : A_AC3
Продолжительность : 1 ч. 31 м.
Вид битрейта : Постоянный
Битрейт : 448 Кбит/сек
Каналы : 6 каналов
Расположение каналов : Front: L C R, Side: L R, LFE
Частота : 48,0 КГц
Частота кадров : 31,250 кадров/сек (1536 spf)
Битовая глубина : 16 бит
Метод сжатия : С потерями
Размер потока : 292 Мбайт (5%)
Заголовок : AVO, М. Чадов
Язык : Russian
Default : Нет
Forced : Нет

Аудио #4
Идентификатор : 5
Формат : AC-3
Формат/Информация : Audio Coding 3
Параметр Endianness формата : Big
Идентификатор кодека : A_AC3
Продолжительность : 1 ч. 31 м.
Вид битрейта : Постоянный
Битрейт : 640 Кбит/сек
Каналы : 6 каналов
Расположение каналов : Front: L C R, Side: L R, LFE
Частота : 48,0 КГц
Частота кадров : 31,250 кадров/сек (1536 spf)
Битовая глубина : 16 бит
Метод сжатия : С потерями
Размер потока : 417 Мбайт (7%)
Заголовок : Оригинал
Язык : English
Default : Нет
Forced : Нет

Аудио #5
Идентификатор : 6
Формат : AC-3
Формат/Информация : Audio Coding 3
Параметр Endianness формата : Big
Идентификатор кодека : A_AC3
Продолжительность : 1 ч. 31 м.
Вид битрейта : Постоянный
Битрейт : 192 Кбит/сек
Каналы : 2 канала
Расположение каналов : Front: L R
Частота : 48,0 КГц
Частота кадров : 31,250 кадров/сек (1536 spf)
Битовая глубина : 16 бит
Метод сжатия : С потерями
Размер потока : 125 Мбайт (2%)
Заголовок : DVO, 1+1
Язык : Ukrainian
Default : Нет
Forced : Нет

Текст #1
Идентификатор : 7
Формат : UTF-8
Идентификатор кодека : S_TEXT/UTF8
Идентификатор кодека/Информация : UTF-8 Plain Text
Язык : Russian
Default : Нет
Forced : Нет

Текст #2
Идентификатор : 8
Формат : UTF-8
Идентификатор кодека : S_TEXT/UTF8
Идентификатор кодека/Информация : UTF-8 Plain Text
Язык : English
Default : Нет
Forced : Нет

Текст #3
Идентификатор : 9
Формат : UTF-8
Идентификатор кодека : S_TEXT/UTF8
Идентификатор кодека/Информация : UTF-8 Plain Text
Заголовок : SDH
Язык : English
Default : Нет
Forced : Нет

Меню
00:00:00.000 : en:Chapter 1
00:05:10.899 : en:Chapter 2
00:08:58.126 : en:Chapter 3
00:13:29.856 : en:Chapter 4
00:17:26.634 : en:Chapter 5
00:20:39.535 : en:Chapter 6
00:26:00.689 : en:Chapter 7
00:30:18.697 : en:Chapter 8
00:36:21.810 : en:Chapter 9
00:41:08.722 : en:Chapter 10
00:45:43.121 : en:Chapter 11
00:49:35.353 : en:Chapter 12
00:54:27.228 : en:Chapter 13
00:59:03.295 : en:Chapter 14
01:02:55.527 : en:Chapter 15
01:07:08.363 : en:Chapter 16
01:12:48.995 : en:Chapter 17
01:16:52.530 : en:Chapter 18
01:20:57.191 : en:Chapter 19
01:26:34.987 : en:Chapter 20
У вас нет необходимых прав для просмотра вложений в этом сообщении.

Ответить Вложения 1

Кто сейчас на конференции

Сейчас этот форум просматривают: нет зарегистрированных пользователей и 0 гостей