Контакт / Communion [ужасы, фантастика, триллер, 1989] BDRip 1080p, Mvo [Расширенная версия]

Раздел для видео роликов, фильмов, мультфильмов... в общем для любого видео / Section for videos, movies, cartoons... in General for any video
Торрент Сидеров Личеров Размер
torrent_650163.torrent
6 0 9.22 ГБ

Автор темы
salma3
Супермодератор
Сообщения: 92
Зарегистрирован: 20 авг 2018, 11:57
Репутация: 0
Russia

Контакт / Communion [ужасы, фантастика, триллер, 1989] BDRip 1080p, Mvo [Расширенная версия]

#1

Сообщение salma3 » 30 авг 2018, 10:37

Страна: США, Великобритания
Жанр: ужасы, фантастика, триллер
Год выпуска: 1989
Продолжительность: 01:49:16

Перевод 1: Профессиональный (многоголосый закадровый) ТВ-3
Перевод 2: Профессиональный (многоголосый закадровый) ЕА
Субтитры: английские
Режиссер: Филипп Мора / Philippe Mora

В ролях: Кристофер Уокен, Линдси Краус, Фрэнсис Стернхаген, Андреас Кацулас, Терри Хэнауэр, Джоэль Карлсон, Джон Деннис Джонстон, Ди Ди Решер, Эйлин Фицпатрик, Р.Дж. Миллер

Описание: В основу фильма положена подлинная сенсационная история, случившаяся с американским писателем-фантастом Уитли Стрибером. Он переезжает с женой и сыном в загородный дом, чтобы закончить новый роман. Дальнейшие события, участником которых оказывается Стрибер, станут основой его документального бестселлера о контакте с инопланетной цивилизацией. Все подробности происшедшего Стрибер смог восстановить только после нескольких сеансов глубокого гипноза. Были ли эти встречи с внеземным разумом реальностью, или они всего лишь плод невероятно яркого воображения писателя?



Тип релиза: BDRip 1080p
Контейнер: MKV
Видео: MPEG-4 AVC, 11.5 Mбит/с, 1920x804, 23.976 fps
Аудио 1: 48 kHz, AC3 Dolby Digital, 2/0 (L,R) ch, ~192 kbps / ТВ-3 /
Аудио 2: 48 kHz, AC3 Dolby Digital, 2/0 (L,R) ch, ~192 kbps / ЕА /
Аудио 3: 48 kHz, AC3 Dolby Digital, 2/0 (L,R) ch, ~192 kbps / Eng /
Формат субтитров: softsub (SRT)
РазвернутьИнфо-файл

Код: Выделить всё

General
Unique ID                      : 183543844310506977922300334184123240323 (0x8A154232BA7EB49A9A18B9EB0F5A8F83)
Complete name                  : C:UsersдомDesktopкиноCommunion.1989.1080p.BluRay.x264.DD2.0.[Атлас31].mkv
Format                         : Matroska
Format version                 : Version 4 / Version 2
File size                      : 9.22 GiB
Duration                       : 1 h 49 min
Overall bit rate               : 12.1 Mb/s
Movie name                     : Communion.1989.1080p.BluRay.x264.DD2.0-=Атлас31=-
Encoded date                   : UTC 2018-08-29 16:14:44
Writing application            : mkvmerge v6.1.0 ('Old Devil') built on Mar  4 2013 09:10:42
Writing library                : libebml v1.3.0 + libmatroska v1.4.0
Cover                          : Yes
Attachments                    : small_cover.jpg / small_cover_land.jpg / cover.jpg / cover_land.jpg

Video
ID                             : 1
Format                         : AVC
Format/Info                    : Advanced Video Codec
Format profile                 : High@L4.1
Format settings, CABAC         : Yes
Format settings, RefFrames     : 4 frames
Codec ID                       : V_MPEG4/ISO/AVC
Duration                       : 1 h 49 min
Bit rate                       : 11.5 Mb/s
Width                          : 1 920 pixels
Height                         : 804 pixels
Display aspect ratio           : 2.40:1
Frame rate mode                : Constant
Frame rate                     : 23.976 (24000/1001) FPS
Color space                    : YUV
Chroma subsampling             : 4:2:0
Bit depth                      : 8 bits
Scan type                      : Progressive
Bits/(Pixel*Frame)             : 0.311
Stream size                    : 8.60 GiB (93%)
Title                          : -=Атлас31=-
Writing library                : x264 core 148 r2795M aaa9aa8
Encoding settings              : cabac=1 / ref=4 / deblock=1:-2:-2 / analyse=0x3:0x113 / me=umh / subme=9 / psy=1 / psy_rd=1.00:0.15 / mixed_ref=1 / me_range=16 / chroma_me=1 / trellis=2 / 8x8dct=1 / cqm=0 / deadzone=21,11 / fast_pskip=1 / chroma_qp_offset=-3 / threads=24 / lookahead_threads=3 / sliced_threads=0 / nr=0 / decimate=1 / interlaced=0 / bluray_compat=0 / constrained_intra=0 / bframes=3 / b_pyramid=2 / b_adapt=1 / b_bias=0 / direct=3 / weightb=1 / open_gop=0 / weightp=2 / keyint=250 / keyint_min=25 / scenecut=40 / intra_refresh=0 / rc_lookahead=50 / rc=2pass / mbtree=1 / bitrate=11500 / ratetol=1.0 / qcomp=0.60 / qpmin=0 / qpmax=69 / qpstep=4 / cplxblur=20.0 / qblur=0.5 / vbv_maxrate=31250 / vbv_bufsize=31250 / nal_hrd=none / filler=0 / ip_ratio=1.40 / aq=1:1.00
Language                       : English
Default                        : Yes
Forced                         : No

Audio #1
ID                             : 2
Format                         : AC-3
Format/Info                    : Audio Coding 3
Format settings, Endianness    : Big
Codec ID                       : A_AC3
Duration                       : 1 h 49 min
Bit rate mode                  : Constant
Bit rate                       : 192 kb/s
Channel(s)                     : 2 channels
Channel positions              : Front: L R
Sampling rate                  : 48.0 kHz
Frame rate                     : 31.250 FPS (1536 SPF)
Bit depth                      : 16 bits
Compression mode               : Lossy
Stream size                    : 150 MiB (2%)
Title                          : MVO (ТВ-3)
Language                       : Russian
Service kind                   : Complete Main
Default                        : Yes
Forced                         : No

Audio #2
ID                             : 3
Format                         : AC-3
Format/Info                    : Audio Coding 3
Format settings, Endianness    : Big
Codec ID                       : A_AC3
Duration                       : 1 h 49 min
Bit rate mode                  : Constant
Bit rate                       : 192 kb/s
Channel(s)                     : 2 channels
Channel positions              : Front: L R
Sampling rate                  : 48.0 kHz
Frame rate                     : 31.250 FPS (1536 SPF)
Bit depth                      : 16 bits
Compression mode               : Lossy
Stream size                    : 150 MiB (2%)
Title                          : MVO (ЕА)
Language                       : Russian
Service kind                   : Complete Main
Default                        : No
Forced                         : No

Audio #3
ID                             : 4
Format                         : AC-3
Format/Info                    : Audio Coding 3
Format settings, Endianness    : Big
Codec ID                       : A_AC3
Duration                       : 1 h 49 min
Bit rate mode                  : Constant
Bit rate                       : 192 kb/s
Channel(s)                     : 2 channels
Channel positions              : Front: L R
Sampling rate                  : 48.0 kHz
Frame rate                     : 31.250 FPS (1536 SPF)
Bit depth                      : 16 bits
Compression mode               : Lossy
Stream size                    : 150 MiB (2%)
Language                       : English
Service kind                   : Complete Main
Default                        : No
Forced                         : No

Text
ID                             : 5
Format                         : UTF-8
Codec ID                       : S_TEXT/UTF8
Codec ID/Info                  : UTF-8 Plain Text
Language                       : English
Default                        : No
Forced                         : No

Menu
00:00:00.000                   : en:Chapter 01
00:00:00.959                   : en:Chapter 02
00:19:44.183                   : en:Chapter 03
00:35:21.327                   : en:Chapter 04
00:56:30.178                   : en:Chapter 05
01:13:35.494                   : en:Chapter 06
01:27:52.183                   : en:Chapter 07
РазвернутьСкриншоты

У вас нет необходимых прав для просмотра вложений в этом сообщении.

Ответить Вложения 1

Кто сейчас на конференции

Сейчас этот форум просматривают: нет зарегистрированных пользователей и 0 гостей