Шоугелз / Showgirls [Драма, 1995] BDRip 720p, Dub

Раздел для видео роликов, фильмов, мультфильмов... в общем для любого видео / Section for videos, movies, cartoons... in General for any video
Торрент Сидеров Личеров Размер
torrent_650337.torrent
8 10 12.58 ГБ

Автор темы
salma3
Супермодератор
Сообщения: 92
Зарегистрирован: 20 авг 2018, 11:57
Репутация: 0
Russia

Шоугелз / Showgirls [Драма, 1995] BDRip 720p, Dub

#1

Сообщение salma3 » 31 авг 2018, 10:24

Год выпуска: 1995
Выпущено: Франция, США
Жанр: Драма
Режиссер: Пол Верховен

В ролях: Элизабет Беркли, Кайл МакЛахлан, Джина Гершон, Гленн Пламмер, Роберт Дави, Алан Рачинс, Джина Равера, Лин Туччи, Грег Трэвис, Аль Руссо, Патрик Бристоу, Уильям Шокли, Мишель Джонстон, Дьюи Уэбер, Рена Риффел, Мелисса Уильямс, Анджела Брокмен, Мелинда Сонгер, Лэнс Дэвис, Джек МакГи, Джим Ишида, Бобби Филлипс, Данте МакКарти, Кэролайн Ки Джонсон, Джоан Фоли, Терри Биман, Кевин Александр Сти, Лиза Бойл, Александр Фолк

О фильме: Молодая длинноногая танцовщица Номи отчаянно пытается добиться успеха в Лас-Вегасе и проникнуть в блистающий мир ярких огней, блеска и света шоу - сцены. Чтобы удержаться на плаву она соглашается на единственно возможную работу - стриптиз, пока ей не удается вытянуть свой счастливый билет - познакомиться с королевой сцены Лас-Вегаса Кристал. Используя свое влияние, Кристал устраивает Номи в свое шоу и вводит ее в истинный мир шоу - бизнеса Лас-Вегаса - мир случая, предательства и интриг, в котором сексуальность можно использовать как власть..

Продолжительность: 02:11:22
Перевод: Дублированный, профессиональный многоголосый, профессиональный двухголосый, авторский
Субтитры: Русские, английские
Навигация по главам: Есть

Файл
Качество: BDRip 720p
Видео: MPEG-4 AVC, 9357 Кбит/сек, 1280x532, 23.976 кадра/сек
Аудио #01: AC3, 2 ch, 384 Кбит/сек | Русский, профессиональный (полное дублирование) НЕВА-1, VHS
Аудио #02: AC3, 6 ch, 448 Кбит/сек | Русский, профессиональный (многоголосый закадровый) CP Digital
Аудио #03: AC3, 6 ch, 448 Кбит/сек | Русский, профессиональный (многоголосый закадровый) Black Street Records, ненормативная лексика
Аудио #04: AC3, 2 ch, 192 Кбит/сек | Русский, профессиональный (многоголосый закадровый) СТС
Аудио #05: AC3, 6 ch, 448 Кбит/сек | Русский, авторский (одноголосый закадровый) Юрий Живов
Аудио #06: AC3, 6 ch, 448 Кбит/сек | Русский, авторский (одноголосый закадровый) Андрей Гаврилов
Аудио #07: AC3, 6 ch, 448 Кбит/сек | Русский, авторский (одноголосый закадровый) Михаил Яроцкий
Аудио #08: AC3, 2 ch, 192 Кбит/сек | Русский, авторский (одноголосый закадровый) Александр Кашкин (Первомайский), VHS
Аудио #09: AC3, 6 ch, 448 Кбит/сек | Украинский, профессиональный (двухголосый закадровый) Від студия, 1+1
Аудио #10: AC3, 6 ch, 448 Кбит/сек | Украинский, профессиональный (многоголосый закадровый) ТакТребаПродакшн, TRK Украина
Аудио #11: AC3, 6 ch, 448 Кбит/сек | Английский, оригинал


РазвернутьСкриншоты
РазвернутьИнфо-файл
x264 [info]: frame I:1109 Avg QP:16.24 size:134554
x264 [info]: frame P:44476 Avg QP:19.08 size: 72538
x264 [info]: frame B:143401 Avg QP:21.08 size: 40701
-----------------------------------------------------
Общее
Уникальный идентификатор : 213527541802258437243112444758791995245 (0xA0A3E89EA6E65B6899CF5B70CDB2BF6D)
Полное имя : Шоугелз.1995.BDRip.720p.KORSAR.mkv
Формат : Matroska
Версия формата : Version 2
Размер файла : 12,6 Гбайт
Продолжительность : 2 ч. 11 м.
Общий поток : 13,7 Мбит/сек
Дата кодирования : UTC 2018-08-29 08:07:46
Программа кодирования : mkvmerge v5.8.0 ('No Sleep / Pillow') built on Sep 2 2012 15:37:04
Библиотека кодирования : libebml v1.2.3 + libmatroska v1.3.0

Видео
Идентификатор : 1
Формат : AVC
Формат/Информация : Advanced Video Codec
Профиль формата : High@L4.1
Настройки формата : CABAC / 12 Ref Frames
Параметр CABAC формата : Да
Параметр RefFrames формата : 12 кадров
Идентификатор кодека : V_MPEG4/ISO/AVC
Продолжительность : 2 ч. 11 м.
Битрейт : 9357 Кбит/сек
Ширина : 1280 пикселей
Высота : 532 пикселя
Соотношение сторон : 2,40:1
Режим частоты кадров : Постоянный
Частота кадров : 23,976 (24000/1001) кадра/сек
Цветовое пространство : YUV
Субдискретизация насыщенности : 4:2:0
Битовая глубина : 8 бит
Тип развёртки : Прогрессивная
Бит/(Пиксели*Кадры) : 0.573
Размер потока : 8,33 Гбайт (66%)
Заголовок : RIP | MZMA
Библиотека кодирования : x264 core 152 r2851kMod ba24899
Настройки программы : cabac=1 / ref=12 / deblock=1:-3:-3 / analyse=0x3:0x113 / me=umh / subme=11 / psy=1 / fade_compensate=0.00 / psy_rd=1.00:0.00 / mixed_ref=1 / me_range=64 / chroma_me=1 / trellis=2 / 8x8dct=1 / cqm=0 / deadzone=21,11 / fast_pskip=0 / chroma_qp_offset=-2 / threads=6 / lookahead_threads=1 / sliced_threads=0 / nr=0 / decimate=0 / interlaced=0 / bluray_compat=0 / constrained_intra=0 / bframes=16 / b_pyramid=2 / b_adapt=2 / b_bias=0 / direct=3 / weightb=1 / open_gop=0 / weightp=2 / keyint=240 / keyint_min=23 / scenecut=40 / intra_refresh=0 / rc_lookahead=40 / rc=2pass / mbtree=0 / bitrate=9357 / ratetol=1.0 / qcomp=0.60 / qpmin=0 / qpmax=69 / qpstep=4 / cplxblur=20.0 / qblur=0.5 / vbv_maxrate=50000 / vbv_bufsize=62500 / nal_hrd=none / filler=0 / ip_ratio=1.40 / pb_ratio=1.30 / aq=3:0.70
Язык : English
По умолчанию : Да
Принудительно : Нет
Цветовой диапазон : Limited
Основные цвета : BT.709
Характеристики трансфера : BT.709
Коэффициенты матрицы : BT.709

Аудио #1
Идентификатор : 2
Формат : AC-3
Формат/Информация : Audio Coding 3
Идентификатор кодека : A_AC3
Продолжительность : 2 ч. 11 м.
Вид битрейта : Постоянный
Битрейт : 384 Кбит/сек
Каналы : 2 канала
Расположение каналов : Front: L R
Частота : 48,0 КГц
Частота кадров : 31,250 кадров/сек (1536 SPF)
Битовая глубина : 16 бит
Метод сжатия : С потерями
Размер потока : 361 Мбайт (3%)
Заголовок : DUB | НЕВА-1
Язык : Russian
По умолчанию : Да
Принудительно : Нет

Аудио #2
Идентификатор : 3
Формат : AC-3
Формат/Информация : Audio Coding 3
Идентификатор кодека : A_AC3
Продолжительность : 2 ч. 11 м.
Вид битрейта : Постоянный
Битрейт : 448 Кбит/сек
Каналы : 6 каналов
Расположение каналов : Front: L C R, Side: L R, LFE
Частота : 48,0 КГц
Частота кадров : 31,250 кадров/сек (1536 SPF)
Битовая глубина : 16 бит
Метод сжатия : С потерями
Размер потока : 421 Мбайт (3%)
Заголовок : MVO | CP Digital
Язык : Russian
По умолчанию : Нет
Принудительно : Нет

Аудио #3
Идентификатор : 4
Формат : AC-3
Формат/Информация : Audio Coding 3
Идентификатор кодека : A_AC3
Продолжительность : 2 ч. 11 м.
Вид битрейта : Постоянный
Битрейт : 448 Кбит/сек
Каналы : 6 каналов
Расположение каналов : Front: L C R, Side: L R, LFE
Частота : 48,0 КГц
Частота кадров : 31,250 кадров/сек (1536 SPF)
Битовая глубина : 16 бит
Метод сжатия : С потерями
Размер потока : 421 Мбайт (3%)
Заголовок : MVO | Black Street Records
Язык : Russian
По умолчанию : Нет
Принудительно : Нет

Аудио #4
Идентификатор : 5
Формат : AC-3
Формат/Информация : Audio Coding 3
Идентификатор кодека : A_AC3
Продолжительность : 2 ч. 11 м.
Вид битрейта : Постоянный
Битрейт : 192 Кбит/сек
Каналы : 2 канала
Расположение каналов : Front: L R
Частота : 48,0 КГц
Частота кадров : 31,250 кадров/сек (1536 SPF)
Битовая глубина : 16 бит
Метод сжатия : С потерями
Размер потока : 180 Мбайт (1%)
Заголовок : MVO | СТС
Язык : Russian
По умолчанию : Нет
Принудительно : Нет

Аудио #5
Идентификатор : 6
Формат : AC-3
Формат/Информация : Audio Coding 3
Идентификатор кодека : A_AC3
Продолжительность : 2 ч. 11 м.
Вид битрейта : Постоянный
Битрейт : 448 Кбит/сек
Каналы : 6 каналов
Расположение каналов : Front: L C R, Side: L R, LFE
Частота : 48,0 КГц
Частота кадров : 31,250 кадров/сек (1536 SPF)
Битовая глубина : 16 бит
Метод сжатия : С потерями
Размер потока : 421 Мбайт (3%)
Заголовок : AVO | Ю. Живов
Язык : Russian
По умолчанию : Нет
Принудительно : Нет

Аудио #6
Идентификатор : 7
Формат : AC-3
Формат/Информация : Audio Coding 3
Идентификатор кодека : A_AC3
Продолжительность : 2 ч. 11 м.
Вид битрейта : Постоянный
Битрейт : 448 Кбит/сек
Каналы : 6 каналов
Расположение каналов : Front: L C R, Side: L R, LFE
Частота : 48,0 КГц
Частота кадров : 31,250 кадров/сек (1536 SPF)
Битовая глубина : 16 бит
Метод сжатия : С потерями
Размер потока : 421 Мбайт (3%)
Заголовок : AVO | А. Гаврилов
Язык : Russian
По умолчанию : Нет
Принудительно : Нет

Аудио #7
Идентификатор : 8
Формат : AC-3
Формат/Информация : Audio Coding 3
Идентификатор кодека : A_AC3
Продолжительность : 2 ч. 11 м.
Вид битрейта : Постоянный
Битрейт : 448 Кбит/сек
Каналы : 6 каналов
Расположение каналов : Front: L C R, Side: L R, LFE
Частота : 48,0 КГц
Частота кадров : 31,250 кадров/сек (1536 SPF)
Битовая глубина : 16 бит
Метод сжатия : С потерями
Размер потока : 421 Мбайт (3%)
Заголовок : AVO | М. Яроцкий
Язык : Russian
По умолчанию : Нет
Принудительно : Нет

Аудио #8
Идентификатор : 9
Формат : AC-3
Формат/Информация : Audio Coding 3
Идентификатор кодека : A_AC3
Продолжительность : 2 ч. 11 м.
Вид битрейта : Постоянный
Битрейт : 192 Кбит/сек
Каналы : 2 канала
Расположение каналов : Front: L R
Частота : 48,0 КГц
Частота кадров : 31,250 кадров/сек (1536 SPF)
Битовая глубина : 16 бит
Метод сжатия : С потерями
Размер потока : 180 Мбайт (1%)
Заголовок : AVO | А. Кашкин
Язык : Russian
По умолчанию : Нет
Принудительно : Нет

Аудио #9
Идентификатор : 10
Формат : AC-3
Формат/Информация : Audio Coding 3
Идентификатор кодека : A_AC3
Продолжительность : 2 ч. 11 м.
Вид битрейта : Постоянный
Битрейт : 448 Кбит/сек
Каналы : 6 каналов
Расположение каналов : Front: L C R, Side: L R, LFE
Частота : 48,0 КГц
Частота кадров : 31,250 кадров/сек (1536 SPF)
Битовая глубина : 16 бит
Метод сжатия : С потерями
Размер потока : 421 Мбайт (3%)
Заголовок : DVO | 1+1
Язык : Ukrainian
По умолчанию : Нет
Принудительно : Нет

Аудио #10
Идентификатор : 11
Формат : AC-3
Формат/Информация : Audio Coding 3
Идентификатор кодека : A_AC3
Продолжительность : 2 ч. 11 м.
Вид битрейта : Постоянный
Битрейт : 448 Кбит/сек
Каналы : 6 каналов
Расположение каналов : Front: L C R, Side: L R, LFE
Частота : 48,0 КГц
Частота кадров : 31,250 кадров/сек (1536 SPF)
Битовая глубина : 16 бит
Метод сжатия : С потерями
Размер потока : 421 Мбайт (3%)
Заголовок : MVO | TRK
Язык : Ukrainian
По умолчанию : Нет
Принудительно : Нет

Аудио #11
Идентификатор : 12
Формат : AC-3
Формат/Информация : Audio Coding 3
Идентификатор кодека : A_AC3
Продолжительность : 2 ч. 11 м.
Вид битрейта : Постоянный
Битрейт : 448 Кбит/сек
Каналы : 6 каналов
Расположение каналов : Front: L C R, Side: L R, LFE
Частота : 48,0 КГц
Частота кадров : 31,250 кадров/сек (1536 SPF)
Битовая глубина : 16 бит
Метод сжатия : С потерями
Размер потока : 421 Мбайт (3%)
Заголовок : Original
Язык : English
По умолчанию : Нет
Принудительно : Нет

Текст #1
Идентификатор : 13
Формат : UTF-8
Идентификатор кодека : S_TEXT/UTF8
Идентификатор кодека/Информация : UTF-8 Plain Text
Заголовок : 1
Язык : Russian
По умолчанию : Нет
Принудительно : Нет

Текст #2
Идентификатор : 14
Формат : UTF-8
Идентификатор кодека : S_TEXT/UTF8
Идентификатор кодека/Информация : UTF-8 Plain Text
Заголовок : 2
Язык : Russian
По умолчанию : Нет
Принудительно : Нет

Текст #3
Идентификатор : 15
Формат : UTF-8
Идентификатор кодека : S_TEXT/UTF8
Идентификатор кодека/Информация : UTF-8 Plain Text
Язык : English
По умолчанию : Нет
Принудительно : Нет

Меню
00:00:00.000 : :1. Title/Switchblade Nomi
00:03:20.450 : :2. Friend or Faux
00:08:11.741 : :3. It's the Show, Girl!
00:12:20.657 : :4. Cristal Magic
00:16:04.547 : :5. She Can Dance
00:19:43.182 : :6. Cheetah's House Rules
00:22:43.487 : :7. Is it Dancing?
00:26:14.907 : :8. Lap Dancer's Delight
00:34:09.839 : :9. The Dress She Wants
00:36:09.584 : :10. Stardust Material
00:38:00.445 : :11. Audition: Impossible
00:43:55.842 : :12. Training Ground
00:49:31.510 : :13. Movin' on Up
00:53:04.264 : :14. "It's a Ver-sayce"
00:56:31.972 : :15. Practice Run
00:58:26.002 : :16. For the Very First Time
01:02:43.593 : :17. Discarded
01:04:48.968 : :18. A New Start
01:11:37.835 : :19. Boat Convention
01:18:16.191 : :20. Tough Break No. 1
01:23:07.608 : :21. Pool Daze
01:29:28.280 : :22. "Nomi's Got Heat"
01:31:26.564 : :23. James' Show
01:37:24.297 : :24. Easy Come, Easy Go
01:38:49.006 : :25. Touch Break No. 2
01:42:37.735 : :26. A Star is Born
01:45:35.120 : :27. Sad, Mad Molly
01:46:59.788 : :28. Goddess, Star & Groupie
01:52:38.377 : :29. Polly's Rap Sheet
01:55:46.815 : :30. Payback
01:58:49.456 : :31. Nicely Settled
02:03:39.412 : :32. End Credits
Релиз от:
У вас нет необходимых прав для просмотра вложений в этом сообщении.

Ответить Вложения 1

Кто сейчас на конференции

Сейчас этот форум просматривают: нет зарегистрированных пользователей и 1 гость