Саймон Бирч / Simon Birch [Драма, комедия, экранизация, 1998] WEB-DL 1080p, Mvo

Торрент раздачи, не нашедшие своего раздела / Torrent distribution, not found its section
Ответить
Торрент Сидеров Личеров Размер
torrent_650339.torrent
0 0 10.6 ГБ

Автор темы
salma3
Супермодератор
Сообщения: 92
Зарегистрирован: 20 авг 2018, 11:57
Репутация: 0
Russia

Саймон Бирч / Simon Birch [Драма, комедия, экранизация, 1998] WEB-DL 1080p, Mvo

#1

Сообщение salma3 » 31 авг 2018, 10:25

Год выпуска: 1998
Выпущено: США, Caravan Pictures, Hollywood Pictures
Жанр: Драма, комедия, экранизация
Режиссер: Марк Стивен Джонсон

В ролях: Йен Майкл Смит, Джозеф Маццелло, Эшли Джадд, Оливер Плэтт, Дэвид Стрэтэйрн, Дэна Айви, Беатрис Уинд, Джен Хукс, Сисилли Кэрролл, Самела Кэй

О фильме: Экранизация романа Джона Уинслоу Ирвинга «Молитва об Оуэне Мини».
В американском городке растут два мальчика. Один, Джо, чей отец неизвестен, принадлежит к семейству основателей города. И второй – очень маленький мальчик со странным голосом – Саймон Бирч. Саймон настолько мал, что даже отбить бейсбольной битой мяч для него проблема. Когда же ему, наконец, удается это сделать, он случайно убивает мячом мать своего лучшего друга… Это фильм о дружбе, о взрослении, о вере, о подвиге. Саймон убежден: скоро он совершит подвиг, правда, еще не знает какой.

Продолжительность: 01:53:59
Перевод: Профессиональный многоголосый, профессиональный двухголосый
Субтитры: Английские
Навигация по главам: Есть

Файл
Качество: WEB-DL 1080p
Видео: MPEG-4 AVC, 11,8 Мбит/сек, 1920x1080, 23,976 кадра/сек
Аудио #1: AC3, 6 ch, 384 Кбит/сек | Русский, профессиональный (двухголосый закадровый) Видеосервис
Аудио #2: AC3, 2 ch, 192 Кбит/сек | Русский, профессиональный (многоголосый закадровый) TV1000
Аудио #3: EAC3, 6 ch, 640 Кбит/сек | Английский, оригинал


Скриншоты
Инфо-файл
Общее
Уникальный идентификатор : 208315038809759622822531001619919493132 (0x9CB8046162C8B2ABBBABC2DC554D580C)
Полное имя : Саймон.Бирч.1998.WEB-DL.1080p.mkv
Формат : Matroska
Версия формата : Version 2
Размер файла : 10,6 Гбайт
Продолжительность : 1 ч. 53 м.
Режим общего битрейта : Переменный
Общий поток : 13,3 Мбит/сек
Дата кодирования : UTC 2018-08-29 12:55:32
Программа кодирования : mkvmerge v5.8.0 ('No Sleep / Pillow') built on Sep 2 2012 15:37:04
Библиотека кодирования : libebml v1.2.3 + libmatroska v1.3.0

Видео
Идентификатор : 1
Формат : AVC
Формат/Информация : Advanced Video Codec
Профиль формата : High@L4
Настройки формата : CABAC / 4 Ref Frames
Параметр CABAC формата : Да
Параметр RefFrames формата : 4 кадра
Идентификатор кодека : V_MPEG4/ISO/AVC
Продолжительность : 1 ч. 53 м.
Вид битрейта : Переменный
Битрейт : 11,8 Мбит/сек
Максимальный битрейт : 15,0 Мбит/сек
Ширина : 1920 пикселей
Высота : 1080 пикселей
Соотношение сторон : 16:9
Режим частоты кадров : Постоянный
Частота кадров : 23,976 (24000/1001) кадра/сек
Цветовое пространство : YUV
Субдискретизация насыщенности : 4:2:0
Битовая глубина : 8 бит
Тип развёртки : Прогрессивная
Бит/(Пиксели*Кадры) : 0.238
Размер потока : 9,42 Гбайт (89%)
Язык : English
По умолчанию : Да
Принудительно : Нет
Цветовой диапазон : Limited
Основные цвета : BT.709
Характеристики трансфера : BT.709
Коэффициенты матрицы : BT.709

Аудио #1
Идентификатор : 2
Формат : AC-3
Формат/Информация : Audio Coding 3
Идентификатор кодека : A_AC3
Продолжительность : 1 ч. 53 м.
Вид битрейта : Постоянный
Битрейт : 384 Кбит/сек
Каналы : 6 каналов
Расположение каналов : Front: L C R, Side: L R, LFE
Частота : 48,0 КГц
Частота кадров : 31,250 кадров/сек (1536 SPF)
Битовая глубина : 16 бит
Метод сжатия : С потерями
Размер потока : 313 Мбайт (3%)
Заголовок : DVO | Видеосервис
Язык : Russian
По умолчанию : Да
Принудительно : Нет

Аудио #2
Идентификатор : 3
Формат : AC-3
Формат/Информация : Audio Coding 3
Идентификатор кодека : A_AC3
Продолжительность : 1 ч. 53 м.
Вид битрейта : Постоянный
Битрейт : 192 Кбит/сек
Каналы : 2 канала
Расположение каналов : Front: L R
Частота : 48,0 КГц
Частота кадров : 31,250 кадров/сек (1536 SPF)
Битовая глубина : 16 бит
Метод сжатия : С потерями
Размер потока : 157 Мбайт (1%)
Заголовок : MVO | TV1000
Язык : Russian
По умолчанию : Нет
Принудительно : Нет

Аудио #3
Идентификатор : 4
Формат : E-AC-3
Формат/Информация : Enhanced Audio Coding 3
Идентификатор кодека : A_EAC3
Продолжительность : 1 ч. 53 м.
Вид битрейта : Постоянный
Битрейт : 640 Кбит/сек
Каналы : 6 каналов
Расположение каналов : Front: L C R, Side: L R, LFE
Частота : 48,0 КГц
Частота кадров : 187,500 кадров/сек (256 SPF)
Метод сжатия : С потерями
Задержка видео : 6 мс.
Размер потока : 522 Мбайт (5%)
Заголовок : Original
Язык : English
По умолчанию : Нет
Принудительно : Нет
Текст #1
Идентификатор : 5
Формат : UTF-8
Идентификатор кодека : S_TEXT/UTF8
Идентификатор кодека/Информация : UTF-8 Plain Text
Язык : English
По умолчанию : Нет
Принудительно : Нет

Текст #2
Идентификатор : 6
Формат : UTF-8
Идентификатор кодека : S_TEXT/UTF8
Идентификатор кодека/Информация : UTF-8 Plain Text
Заголовок : SDH
Язык : English
По умолчанию : Нет
Принудительно : Нет

Меню
00:00:00.000 : en:Studio Logos
00:00:30.990 : en:Opening Credits
00:03:52.990 : en:The kids play around with Simon & Miss Leavey gets mad at them, classroom
00:06:08.990 : en:Mrs. Birch gives birth to Simon
00:09:11.990 : en:Joe & Simon play a baseball game & go swimming, baseball field & river
00:14:31.990 : en:Joe & Simon run into Ann & Marjorie, river
00:17:47.990 : en:Ben has dinner with the Wenteworths & gives Joe a present, Joe's house
00:24:04.990 : en:Joe & Simon sleep in the yard & talk about Ben, Joe's house & yard
00:26:47.990 : en:Joe & his family & Simon attend church, church
00:29:48.990 : en:Simon gets into trouble & Miss Leavey argues with Rebecca, church
00:33:33.990 : en:Joe & Simon play baseball & Simon swings the bat, baseball field
00:37:00.990 : en:Joe & his family attend his mother's funeral
00:40:35.990 : en:Joe gives Simon a present
00:45:11.990 : en:Joe goes swimming with Simon & thinks about the day on the baseball field, river
00:47:12.990 : en:Joe's grandma talks to him about his future, Joe's house
00:49:48.990 : en:Joe & Simon eat ice cream & try to guess who Joe's father is, porch
00:52:28.990 : en:Joe & Simon sneak into Mr. Baker's office, gym
00:56:40.990 : en:Chief Al tells Joe & Simon their sentence & Ben picks them up, police station
01:00:10.990 : en:Ben spends time with Joe & Simon, riverside
01:01:52.990 : en:Miss Leavey assigns the kids their roles, classroom
01:05:16.990 : en:The kids rehearse for the play & Simon asks Rev. Russell about God, church
01:10:42.990 : en:The play begins & chaos ensues, church
01:15:23.990 : en:Rev. Russell gives Simon a talk, Rev. Russell's office
01:18:50.990 : en:Joe tries to visit Simon, Simon's house
01:22:05.990 : en:Joe & his classmates get on the bus
01:25:57.990 : en:Rev. Russell & Joe talk about Simon, snow path
01:26:56.990 : en:Joe gets surprising news & Ben & Rev. Russell have a heartwarming talk, town
01:31:32.990 : en:Joe & Simon talk about Simon's destiny, school bus
01:32:49.990 : en:The bus crashes into the river & Simon helps the kids, road & river
01:40:53.990 : en:Joe says goodbye to Simon, hospital
01:46:39.990 : en:Joe swims in the river
01:50:17.990 : en:End Credits
Дополнительная информация
• Исходник видео WEB-DL Amazon.
Сборка:
У вас нет необходимых прав для просмотра вложений в этом сообщении.

Ответить

Кто сейчас на конференции

Сейчас этот форум просматривают: нет зарегистрированных пользователей и 0 гостей