Убийца / The Slayer [ужасы, 1982] BDRip 720p, Avo

Раздел для видео роликов, фильмов, мультфильмов... в общем для любого видео / Section for videos, movies, cartoons... in General for any video
Торрент Сидеров Личеров Размер
torrent_650229.torrent
4 1 6.48 ГБ

Автор темы
salma3
Супермодератор
Сообщения: 92
Зарегистрирован: 20 авг 2018, 11:57
Репутация: 0
Russia

Убийца / The Slayer [ужасы, 1982] BDRip 720p, Avo

#1

Сообщение salma3 » 31 авг 2018, 10:28

Год выхода: 1982
Жанр: ужасы
Режиссер: Дж.С. Кардоне

В ролях: Сара Кендалл, Фредерик Флинн, Кэрол Коттенбрук, Алан МакРей, Майкл Холмс, Пол Джандольфо, Ньюэлл Александр, Айви Джонс, Дженнифер Гаффин

О фильме: Небольшая группа людей оказываются застрявшими на одном необитаемом острове. После чего, один за другим начинают погибать. Оказывается, на острове они не одни. Здесь присутствует некий неизвестный убийца. Он безжалостно убивает одного за другим, пока не остается в живых одна девушка. Сможет ли она справиться со страшным убийцей, или же станет очередной жертвой?



Страна: США
Продолжительность: 01:29:55
Перевод 1: Авторский (одноголосый закадровый) Александр Кашкин
Перевод 2: Любительский (двухголосый закадровый) Колобок
Оригинальная аудиодорожка: английская
Субтитры: английские

Файл
Качество: BDRip 720p
Видео: MPEG-4 AVC, 9700 kbps, 1280x690, 23.976 fps
Аудио 1: Russian, AC3, 48.0 KHz, 2 ch, 192 kbps | Студия Колобок
Аудио 2: Russian, AC3, 48.0 KHz, 2 ch, 192 kbps | Александр Кашкин
Аудио 3: English, AC3, 48.0 KHz, 1 ch, 224 kbps | Original

Автор релиза: GoldDust
РазвернутьСкриншоты
РазвернутьMediaInfo
General
Unique ID : 44611993739053055298400175408205153012 (0x218FF51C3C39BDE36633CE51D9B242F4)
Complete name : The.Slayer.1982.BDRip.720p.mkv
Format : Matroska
Format version : Version 4 / Version 2
File size : 6.48 GiB
Duration : 1 h 29 min
Overall bit rate : 10.3 Mb/s
Encoded date : UTC 2018-08-27 13:16:29
Writing application : mkvmerge v25.0.0 ('Prog Noir') 64-bit
Writing library : libebml v1.3.6 + libmatroska v1.4.9

Video
ID : 1
Format : AVC
Format/Info : Advanced Video Codec
Format profile : High@L4.1
Format settings : CABAC / 9 Ref Frames
Format settings, CABAC : Yes
Format settings, ReFrames : 9 frames
Codec ID : V_MPEG4/ISO/AVC
Duration : 1 h 29 min
Bit rate : 9 700 kb/s
Width : 1 280 pixels
Height : 690 pixels
Display aspect ratio : 1.85:1
Frame rate mode : Constant
Frame rate : 23.976 (24000/1001) FPS
Color space : YUV
Chroma subsampling : 4:2:0
Bit depth : 8 bits
Scan type : Progressive
Bits/(Pixel*Frame) : 0.458
Stream size : 6.09 GiB (94%)
Title : The.Slayer.1982.BDRip.720p.x264-MM
Writing library : x264 core 146 r2538 121396c
Encoding settings : cabac=1 / ref=9 / deblock=1:-3:-3 / analyse=0x3:0x113 / me=umh / subme=11 / psy=1 / psy_rd=1.00:0.00 / mixed_ref=1 / me_range=48 / chroma_me=1 / trellis=2 / 8x8dct=1 / cqm=0 / deadzone=21,11 / fast_pskip=0 / chroma_qp_offset=-2 / threads=12 / lookahead_threads=3 / sliced_threads=0 / nr=0 / decimate=0 / interlaced=0 / bluray_compat=0 / constrained_intra=0 / bframes=12 / b_pyramid=2 / b_adapt=2 / b_bias=0 / direct=3 / weightb=1 / open_gop=1 / weightp=2 / keyint=250 / keyint_min=23 / scenecut=40 / intra_refresh=0 / rc_lookahead=60 / rc=2pass / mbtree=0 / bitrate=9700 / ratetol=1.0 / qcomp=0.60 / qpmin=0 / qpmax=69 / qpstep=4 / cplxblur=20.0 / qblur=0.5 / vbv_maxrate=50000 / vbv_bufsize=62500 / nal_hrd=none / filler=0 / ip_ratio=1.40 / pb_ratio=1.30 / aq=1:1.10
Language : English
Default : Yes
Forced : No

Audio #1
ID : 2
Format : AC-3
Format/Info : Audio Coding 3
Codec ID : A_AC3
Duration : 1 h 29 min
Bit rate mode : Constant
Bit rate : 192 kb/s
Channel(s) : 2 channels
Channel positions : Front: L R
Sampling rate : 48.0 kHz
Frame rate : 31.250 FPS (1536 SPF)
Bit depth : 16 bits
Compression mode : Lossy
Stream size : 123 MiB (2%)
Title : DVO Студия Колобок
Language : Russian
Service kind : Complete Main
Default : Yes
Forced : No

Audio #2
ID : 3
Format : AC-3
Format/Info : Audio Coding 3
Codec ID : A_AC3
Duration : 1 h 29 min
Bit rate mode : Constant
Bit rate : 192 kb/s
Channel(s) : 2 channels
Channel positions : Front: L R
Sampling rate : 48.0 kHz
Frame rate : 31.250 FPS (1536 SPF)
Bit depth : 16 bits
Compression mode : Lossy
Stream size : 123 MiB (2%)
Title : AVO Кашкин (ранний)
Language : Russian
Service kind : Complete Main
Default : No
Forced : No

Audio #3
ID : 4
Format : AC-3
Format/Info : Audio Coding 3
Codec ID : A_AC3
Duration : 1 h 29 min
Bit rate mode : Constant
Bit rate : 224 kb/s
Channel(s) : 1 channel
Channel positions : Front: C
Sampling rate : 48.0 kHz
Frame rate : 31.250 FPS (1536 SPF)
Bit depth : 16 bits
Compression mode : Lossy
Stream size : 144 MiB (2%)
Title : Original
Language : English
Service kind : Complete Main
Default : No
Forced : No

Text
ID : 5
Format : PGS
Muxing mode : zlib
Codec ID : S_HDMV/PGS
Codec ID/Info : Picture based subtitle format used on BDs/HD-DVDs
Duration : 1 h 27 min
Bit rate : 18.2 kb/s
Count of elements : 1290
Stream size : 11.4 MiB (0%)
Language : English
Default : Yes
Forced : No

Menu
00:00:00.000 : en:Chapter 1
00:07:42.044 : en:Chapter 2
00:14:02.007 : en:Chapter 3
00:21:01.551 : en:Chapter 4
00:27:20.805 : en:Chapter 5
00:37:27.495 : en:Chapter 6
00:45:42.906 : en:Chapter 7
00:52:25.100 : en:Chapter 8
00:58:56.991 : en:Chapter 9
01:06:06.671 : en:Chapter 10
01:11:29.660 : en:Chapter 11
01:21:29.593 : en:Chapter 12
У вас нет необходимых прав для просмотра вложений в этом сообщении.

Ответить Вложения 1

Кто сейчас на конференции

Сейчас этот форум просматривают: нет зарегистрированных пользователей и 0 гостей