Голубая игуана / Blue Iguana [Триллер, мелодрама, комедия, 2018] WEB-DL 1080p, Dub [iTunes]s] [Локализованная версия]

Торрент раздачи, не нашедшие своего раздела / Torrent distribution, not found its section
Ответить
Торрент Сидеров Личеров Размер
torrent_650473.torrent
0 0 3.34 ГБ

Автор темы
salma3
Супермодератор
Сообщения: 92
Зарегистрирован: 20 авг 2018, 11:57
Репутация: 0
Russia

Голубая игуана / Blue Iguana [Триллер, мелодрама, комедия, 2018] WEB-DL 1080p, Dub [iTunes]s] [Локализованная версия]

#1

Сообщение salma3 » 01 сен 2018, 11:35

Год выхода: 2018
Жанр: Триллер, мелодрама, комедия
Режиссер: Хади Хаджэйг

В ролях: Сэм Рокуэлл, Бен Шварц, Саймон Кэллоу, Аманда Донохью, Фрэнсис Барбер, Фиби Фокс, Аль Уивер, Питер Фердинандо, Дженни Беде, Энтон Саундерс

О фильме:
Мелкие мошенники Эдди и Пол досрочно выходят из тюрьмы и устраиваются на работу в нью-йоркское кафе. Казалось, им не светит уже ничего интересного в этой жизни. Но однажды к ним в забегаловку заглядывает авантюристка Кэтрин Руквуд. Она уговаривает парней отправиться в Лондон и украсть уникальный бриллиант — «Голубую игуану».



Страна: Великобритания
Продолжительность: 01:36:40
Перевод: Дублированный | iTunes

Файл
Качество: WEB-DL 1080p
Формат: MKV
Кодек: MPEG-4 AVC
Видео: 1920x802 (2.40:1), 25 fps, MPEG-4 AVC ~ 4556 Кbps avg, 0.118 bit/pixel
Аудио: AC3, 48 kHz, 6 ch, ~384.00 kbps avg | русский |iTunes

Семпл
Инфо-файл
Общее
Уникальный идентификатор : 216229251455891076100629086079317629459 (0xA2AC3D309EBEA1AA622300CEB06EDA13)
Полное имя : BLUE_IGUANA_2018_WEB_DL_1080p_KAZTORKA.mkv
Формат : Matroska
Версия формата : Version 4 / Version 2
Размер файла : 3,34 Гбайт
Продолжительность : 1 ч. 36 м.
Общий поток : 4942 Кбит/сек
Название фильма : BLUE_IGUANA_2018_WEB_DL_1080p_KAZTORKA
Дата кодирования : UTC 2018-08-31 12:31:25
Программа кодирования : mkvmerge v20.0.0 ('I Am The Sun') 64-bit
Библиотека кодирования : libebml v1.3.5 + libmatroska v1.4.8
Видео
Идентификатор : 1
Формат : AVC
Формат/Информация : Advanced Video Codec
Профиль формата : High@L4
Настройки формата : CABAC / 5 Ref Frames
Параметр CABAC формата : Да
Параметр RefFrames формата : 5 кадров
Идентификатор кодека : V_MPEG4/ISO/AVC
Продолжительность : 1 ч. 36 м.
Битрейт : 4556 Кбит/сек
Ширина : 1920 пикселей
Высота : 802 пикселя
Соотношение сторон : 2,40:1
Режим частоты кадров : Постоянный
Частота кадров : 25,000 кадров/сек
Цветовое пространство : YUV
Субдискретизация насыщенности : 4:2:0
Битовая глубина : 8 бит
Тип развёртки : Прогрессивная
Бит/(Пиксели*Кадры) : 0.118
Размер потока : 3,08 Гбайт (92%)
Заголовок : BLUE_IGUANA_2018_WEB_DL_1080p_KAZTORKA
Язык : English
Default : Да
Forced : Нет
Цветовой диапазон : Limited
Основные цвета : BT.709
Характеристики трансфера : BT.709
Коэффициенты матрицы : BT.709
Аудио
Идентификатор : 2
Формат : AC-3
Формат/Информация : Audio Coding 3
Идентификатор кодека : A_AC3
Продолжительность : 1 ч. 36 м.
Вид битрейта : Постоянный
Битрейт : 384 Кбит/сек
Каналы : 6 каналов
Расположение каналов : Front: L C R, Side: L R, LFE
Частота : 48,0 КГц
Частота кадров : 31,250 кадров/сек (1536 SPF)
Битовая глубина : 16 бит
Метод сжатия : С потерями
Задержка видео : -40 мс.
Размер потока : 266 Мбайт (8%)
Заголовок : iTunes
Язык : Russian
Default : Да
Forced : Нет
Меню
00:00:00.000 : en:Глава 1
00:07:11.280 : en:Глава 2
00:15:03.520 : en:Глава 3
00:22:26.840 : en:Глава 4
00:29:41.440 : en:Глава 5
00:36:43.000 : en:Глава 6
00:43:56.720 : en:Глава 7
00:52:10.360 : en:Глава 8
01:00:10.440 : en:Глава 9
01:08:41.400 : en:Глава 10
01:16:21.680 : en:Глава 11
01:24:23.840 : en:Глава 12
Скриншоты
У вас нет необходимых прав для просмотра вложений в этом сообщении.

Ответить

Кто сейчас на конференции

Сейчас этот форум просматривают: нет зарегистрированных пользователей и 0 гостей