Слежка 2: Снова в засаде / Another Stakeout [боевик, триллер, комедия, 1993] BDRip 720p, Mvo

Торрент раздачи, не нашедшие своего раздела / Torrent distribution, not found its section
Ответить
Торрент Сидеров Личеров Размер
torrent_152320.torrent
0 0 5.29 ГБ

Автор темы
salma3
Супермодератор
Сообщения: 92
Зарегистрирован: 20 авг 2018, 11:57
Репутация: 0
Russia

Слежка 2: Снова в засаде / Another Stakeout [боевик, триллер, комедия, 1993] BDRip 720p, Mvo

#1

Сообщение salma3 » 02 сен 2018, 10:39

Год выхода: 1993
Страна: США
Жанр: боевик, триллер, комедия
Режиссер: Джон Бэдэм / John Badham

В ролях: Ричард Дрейфусс, Эмилио Эстевез, Рози О’Доннелл, Деннис Фарина, Марша Стрэссмен, Кэти Мориарти, Джон Рубинстайн, Мигель Феррер, Шарон Мофан, Кристофер Дойл...

О фильме: Полицейским Крису и Биллу вновь доверяют ответственное задание. На этот раз им предстоит разыскать важного свидетеля, который скрывается от мести мафии. Вдвоем они без труда справились бы с этим поручением, но в их дружной компании появляется третий лишний, когда окружной прокурор направляет к ним помощницу Джину. Эта самоуверенная дама приводит с собой собачку - огромного ротвейлера. Вместе они отправляются на поиски. И они обязательно выполнят задание… если по пути песик не слопает друзей, а полицейские и их новая напарница не перестреляют друг друга!



Информация о файле:
Качество: BDRip 720p
Продолжительность: 01:52:30
Язык (перевод):
1) русский многоголосый закадровый
2) русский одноголосый закадровый (Володарский)
3) русский одноголосый закадровый (Горчаков)
4) русский одноголосый закадровый (Гаврилов)
5) оригинальная английская дорожка
Субтитры: русские, английские
Формат: MKV

Видео: H264, High@L4.1, 1280x544 (2.35:1), 23.976 fps, 0.232 bpp, 4252 Kbps
Аудио 1: AC3 2.0, 48.0 KHz, Front: L R, 192 Kbps
Аудио 2: AC3 2.0, 48.0 KHz, Front: L R, 256 Kbps
Аудио 3: AC3 5.1, 48.0 KHz, Front: L C R, Side: L R, LFE, 384 Kbps
Аудио 4: AC3 5.1, 48.0 KHz, Front: L C R, Side: L R, LFE, 384 Kbps
Аудио 5: DTS 5.1, 48.0 KHz, Front: L C R, Side: L R, LFE, 24 bits, 1510 Kbps
MediaInfo
Код:
Complete name : e:VIDEO720pAnother.Stakeout.1993Another.Stakeout.1993.720p.BluRay.x264-NODLABS.mkv
Format : Matroska
File size : 5.29 GiB
Duration : 1h 52mn
Overall bit rate : 6 736 Kbps
Encoded date : UTC 2011-04-09 16:21:09
Writing application : mkvmerge v4.6.0 ('Still Crazy After All These Years') сборка от Mar 10 2011 02:50:32
Writing library : libebml v1.2.0 + libmatroska v1.1.0

Video
ID : 1
Format : AVC
Format/Info : Advanced Video Codec
Format profile : High@L4.1
Format settings, CABAC : Yes
Format settings, ReFrames : 5 frames
Codec ID : V_MPEG4/ISO/AVC
Duration : 1h 52mn
Bit rate : 3 876 Kbps
Nominal bit rate : 4 252 Kbps
Width : 1 280 pixels
Height : 544 pixels
Display aspect ratio : 2.35:1
Frame rate : 23.976 fps
Color space : YUV
Chroma subsampling : 4:2:0
Bit depth : 8 bits
Scan type : Progressive
Bits/(Pixel*Frame) : 0.232
Stream size : 3.05 GiB (58%)
Writing library : x264 core 114 r1924 08d04a4
Encoding settings : cabac=1 / ref=5 / deblock=1:0:0 / analyse=0x3:0x113 / me=umh / subme=8 / psy=1 / psy_rd=1.00:0.00 / mixed_ref=1 / me_range=16 / chroma_me=1 / trellis=1 / 8x8dct=1 / cqm=0 / deadzone=21,11 / fast_pskip=1 / chroma_qp_offset=-2 / threads=12 / sliced_threads=0 / nr=0 / decimate=1 / interlaced=0 / constrained_intra=0 / bframes=3 / b_pyramid=2 / b_adapt=2 / b_bias=0 / direct=3 / weightb=1 / open_gop=0 / weightp=2 / keyint=240 / keyint_min=24 / scenecut=40 / intra_refresh=0 / rc_lookahead=50 / rc=2pass / mbtree=1 / bitrate=4252 / ratetol=1.0 / qcomp=0.60 / qpmin=0 / qpmax=69 / qpstep=4 / cplxblur=20.0 / qblur=0.5 / ip_ratio=1.40 / aq=1:1.00
Language : English

Audio #1
ID : 2
Format : DTS
Format/Info : Digital Theater Systems
Codec ID : A_DTS
Duration : 1h 52mn
Bit rate mode : Constant
Bit rate : 1 510 Kbps
Channel(s) : 2 channels
Channel positions : Front: L R
Sampling rate : 48.0 KHz
Bit depth : 24 bits
Compression mode : Lossy
Delay relative to video : 33ms
Stream size : 1.19 GiB (22%)
Title : English
Language : English

Audio #2
ID : 3
Format : AC-3
Format/Info : Audio Coding 3
Mode extension : CM (complete main)
Codec ID : A_AC3
Duration : 1h 52mn
Bit rate mode : Constant
Bit rate : 192 Kbps
Channel(s) : 2 channels
Channel positions : Front: L R
Sampling rate : 48.0 KHz
Bit depth : 16 bits
Compression mode : Lossy
Stream size : 155 MiB (3%)
Title : MVO
Language : Russian

Audio #3
ID : 4
Format : AC-3
Format/Info : Audio Coding 3
Mode extension : CM (complete main)
Codec ID : A_AC3
Duration : 1h 52mn
Bit rate mode : Constant
Bit rate : 256 Kbps
Channel(s) : 2 channels
Channel positions : Front: L R
Sampling rate : 48.0 KHz
Bit depth : 16 bits
Compression mode : Lossy
Stream size : 206 MiB (4%)
Title : AVO Володарский
Language : Russian

Audio #4
ID : 5
Format : AC-3
Format/Info : Audio Coding 3
Mode extension : CM (complete main)
Codec ID : A_AC3
Duration : 1h 52mn
Bit rate mode : Constant
Bit rate : 384 Kbps
Channel(s) : 6 channels
Channel positions : Front: L C R, Side: L R, LFE
Sampling rate : 48.0 KHz
Bit depth : 16 bits
Compression mode : Lossy
Stream size : 309 MiB (6%)
Title : АVO Горчаков
Language : Russian

Audio #5
ID : 6
Format : AC-3
Format/Info : Audio Coding 3
Mode extension : CM (complete main)
Codec ID : A_AC3
Duration : 1h 52mn
Bit rate mode : Constant
Bit rate : 384 Kbps
Channel(s) : 6 channels
Channel positions : Front: L C R, Side: L R, LFE
Sampling rate : 48.0 KHz
Bit depth : 16 bits
Compression mode : Lossy
Stream size : 309 MiB (6%)
Title : AVO Гаврилов
Language : Russian

Text #1
ID : 7
Format : UTF-8
Codec ID : S_TEXT/UTF8
Codec ID/Info : UTF-8 Plain Text
Title : Russian
Language : Russian

Text #2
ID : 8
Format : UTF-8
Codec ID : S_TEXT/UTF8
Codec ID/Info : UTF-8 Plain Text
Title : English
Language : English

Menu
00:00:00.000 : en:00:00:00.000
00:04:45.827 : en:00:04:45.827
00:11:13.381 : en:00:11:13.381
00:16:34.827 : en:00:16:34.827
00:24:09.782 : en:00:24:09.782
00:31:50.909 : en:00:31:50.909
00:38:10.371 : en:00:38:10.371
00:47:05.865 : en:00:47:05.865
00:54:26.221 : en:00:54:26.221
01:01:35.942 : en:01:01:35.942
01:05:09.364 : en:01:05:09.364
01:12:40.356 : en:01:12:40.356
01:18:27.202 : en:01:18:27.202
01:30:04.941 : en:01:30:04.941
01:42:00.114 : en:01:42:00.114
Скриншоты
У вас нет необходимых прав для просмотра вложений в этом сообщении.

Ответить

Кто сейчас на конференции

Сейчас этот форум просматривают: нет зарегистрированных пользователей и 0 гостей