Доктор Улитка / Серии: 1-4 из 4 (Эдуард Пальмов) [2018, мелодрама, WEBRip]

Раздел для видео роликов, фильмов, мультфильмов... в общем для любого видео / Section for videos, movies, cartoons... in General for any video
Торрент Сидеров Личеров Размер
Доктор Улитка (Серии 1-4 из 4) [2018, мелодрама, WEBRip] [560828...
207 67 2.73 ГБ
Аватара пользователя

Автор темы
Evangelion
Супермодератор
Сообщения: 30
Зарегистрирован: 10 июл 2018, 23:15
Репутация: 0
Откуда: Горловка
Поблагодарили: 1 раз
Пол:
Ukraine

Доктор Улитка / Серии: 1-4 из 4 (Эдуард Пальмов) [2018, мелодрама, WEBRip]

#1

Сообщение Evangelion » 02 сен 2018, 21:48

Доктор Улитка


Год выпуска: 2018
Производство: Паламеда Продакшн
Жанр: мелодрама
Продолжительность: ~00:46:00 серия
Субтитры: нет

Режиссёр: Эдуард Пальмов

В ролях: Мария Куликова, Владислав Резник, Алиса Петрова, Александр Ефимов, Анатолий Голуб, Ирина Нарбекова, Вероника Цыкунова, Ольга Рептух, Анна Полупанова, Василий Козлов, Александр Гелейша, Кирилл Батуро

Описание: Доктора Киру Улитину за нерешительность называют Улиткой. Но Улитка она только в личной жизни – верит всему, что говорит ей женатый возлюбленный и начальник Виктор Савельев, боится надавить на него и потребовать развестись с женой. В работе же Кира – редкий профессионал, врач-акушер от Бога, на счету которой множество спасенных жизней. Вот только коллеги не всегда прислушиваются к ее мнению, и однажды по их вине на операционном столе Киры погибает ребенок. Савельев вынужден показательно уволить Улитку. И тут же выясняется, что все это время он врал ей. Он никогда не собирался разводится с женой, более того его жена оказывается в положении. Кира вынуждена уехать из столицы и устроиться на работу в маленькую провинциальную больницу. Но новый начальник Сергей Крутов (Владислав Резник) встречает ее как врага. Для него Кира – убийца ребенка и блатной врач, которого ему навязали сверху. Кире придется делом доказывать свое право спасать людей. А еще она должна будет принять самое важное решение в своей жизни...


Реклама: Нет.

Кино-театр
Sample

Качество: WEBRip - Files-x
Формат: AVI
Видео кодек: XviD
Аудио кодек: AC3
Видео: 720x400 (1.80:1), 25 fps, XviD build 73 ~1900 kbps avg, 0.265 bit/pixel
Аудио: 48.0 kHz, AC3 Dolby Digital, 2/0 (L,R) ch, ~ 192 kbps
РазвернутьMI
General
Complete name : D:\Доктор Улитка 2018.WEB-DLRip.Files-x\1.Доктор Улитка 2018.WEB-DLRip.Files-x.avi
Format : AVI
Format/Info : Audio Video Interleave
File size : 1.36 GiB
Duration : 1 h 32 min
Overall bit rate : 2 110 kb/s
Writing application : VirtualDubMod 1.5.10.3 | www.virtualdub-fr.org || (build 2550/release)
Writing library : VirtualDubMod build 2550/release

Video
ID : 0
Format : MPEG-4 Visual
Format profile : Advanced Simple@L5
Format settings : BVOP1 / Custom Matrix
Format settings, BVOP : 1
Format settings, QPel : No
Format settings, GMC : No warppoints
Format settings, Matrix : Custom
Codec ID : XVID
Codec ID/Hint : XviD
Duration : 1 h 32 min
Bit rate : 1 908 kb/s
Width : 720 pixels
Height : 400 pixels
Display aspect ratio : 16:9
Frame rate : 25.000 FPS
Color space : YUV
Chroma subsampling : 4:2:0
Bit depth : 8 bits
Scan type : Progressive
Compression mode : Lossy
Bits/(Pixel*Frame) : 0.265
Stream size : 1.23 GiB (90%)
Writing library : XviD 73

Audio
ID : 1
Format : AC-3
Format/Info : Audio Coding 3
Codec ID : 2000
Duration : 1 h 32 min
Bit rate mode : Constant
Bit rate : 192 kb/s
Channel(s) : 2 channels
Channel positions : Front: L R
Sampling rate : 48.0 kHz
Frame rate : 31.250 FPS (1536 SPF)
Bit depth : 16 bits
Compression mode : Lossy
Stream size : 127 MiB (9%)
Alignment : Split accross interleaves
Interleave, duration : 40 ms (1.00 video frame)
Interleave, preload duratio : 500 ms
Service kind : Complete Main

РазвернутьСкриншоты

У вас нет необходимых прав для просмотра вложений в этом сообщении.

Ответить Вложения 1

Кто сейчас на конференции

Сейчас этот форум просматривают: нет зарегистрированных пользователей и 0 гостей