Подстава / Set It Up [Мелодрама, комедия, 2018] WEBRip, Mvo [Jaskier]

Раздел для видео роликов, фильмов, мультфильмов... в общем для любого видео / Section for videos, movies, cartoons... in General for any video
Торрент Сидеров Личеров Размер
torrent_650983.torrent
0 0 1.46 ГБ

Автор темы
salma3
Супермодератор
Сообщения: 92
Зарегистрирован: 20 авг 2018, 11:57
Репутация: 0
Russia

Подстава / Set It Up [Мелодрама, комедия, 2018] WEBRip, Mvo [Jaskier]

#1

Сообщение salma3 » 03 сен 2018, 12:36

Год выхода: 2018
Жанр: Мелодрама, комедия
Режиссер: Клер Скэнлон

В ролях: Зои Дойч, Люси Лью, Пит Дэвидсон, Титус Берджесс, Глен Пауэлл, Тэй Диггз, Эван Парк, Мередит Хагнер, Ной Роббинс, Ширли Родригес и другие

О фильме:
Как же тяжела участь ассистента босса – трудоголика – ну просто ни минуты на отдых! А если переключить внимание начальника на романтическую сторону жизни? Так, двое изрядно утомленных работой ассистента решают организовать для своих боссов любовную интрижку и, надо сказать, результат превосходит все их ожидания. Правда, никто не мог предвидеть, как далеко зайдут эти «срежиссированные» отношения…



Страна: США, Treehouse Pictures
Продолжительность: 01:45:33
Перевод: Профессиональный (многоголосый, закадровый) Jaskier

Файл
Формат: AVI
Качество: WEBRip
Видео: XviD, 720x384, 23.976 fps, 1583 kbps
Звук: AC3, 6 ch, 384 kbps
РазвернутьMI
Общее
Полное имя : D:ЯскъерSet.It.Up.2018.NF.XviD.WEBRip.Jaskier.avi
Формат : AVI
Формат/Информация : Audio Video Interleave
Размер файла : 1,46 Гбайт
Продолжительность : 1 ч. 45 м.
Общий поток : 1977 Кбит/сек
Программа кодирования : VirtualDubMod 1.5.10.3 | http://www.virtualdub-fr.org || (build 2550/release)
Библиотека кодирования : VirtualDubMod build 2550/release

Видео
Идентификатор : 0
Формат : MPEG-4 Visual
Профиль формата : Advanced Simple@L5
Настройки формата : BVOP1 / Custom Matrix
Параметр BVOP формата : 1
Параметр QPel формата : Нет
Параметр GMC формата : Без точки перехода
Параметр матрицы формата : Выборочная
Идентификатор кодека : XVID
Идентификатор кодека/Подсказка : XviD
Продолжительность : 1 ч. 45 м.
Битрейт : 1583 Кбит/сек
Ширина : 720 пикселей
Высота : 304 пикселя
Соотношение сторон : 2,35:1
Частота кадров : 23,976 (24000/1001) кадра/сек
Частота кадров в оригинале : 23,976 (23976/1000) кадра/сек
Цветовое пространство : YUV
Субдискретизация насыщенности : 4:2:0
Битовая глубина : 8 бит
Тип развёртки : Прогрессивная
Метод сжатия : С потерями
Бит/(Пиксели*Кадры) : 0.302
Размер потока : 1,17 Гбайт (80%)
Библиотека кодирования : XviD 73

Аудио
Идентификатор : 1
Формат : AC-3
Формат/Информация : Audio Coding 3
Идентификатор кодека : 2000
Продолжительность : 1 ч. 45 м.
Вид битрейта : Постоянный
Битрейт : 384 Кбит/сек
Каналы : 6 каналов
Расположение каналов : Front: L C R, Side: L R, LFE
Частота : 48,0 КГц
Частота кадров : 31,250 кадров/сек (1536 SPF)
Битовая глубина : 16 бит
Метод сжатия : С потерями
Размер потока : 290 Мбайт (19%)
Выравнивание : Разделение по промежуткам
Продолжительность промежутка : 42 мс. (1,00 видеокадр)
Время предзагрузки промежутка : 500 мс.
РазвернутьСкриншоты

Релиз от: JASKiER
У вас нет необходимых прав для просмотра вложений в этом сообщении.

Ответить Вложения 1

Кто сейчас на конференции

Сейчас этот форум просматривают: нет зарегистрированных пользователей и 0 гостей