Будка поцелуев / The Kissing Booth [мелодрама, комедия, 2018] WEBRip, Mvo [Jaskier]

Торрент раздачи, не нашедшие своего раздела / Torrent distribution, not found its section
Ответить
Торрент Сидеров Личеров Размер
torrent_650985.torrent
0 0 1.46 ГБ

Автор темы
salma3
Супермодератор
Сообщения: 92
Зарегистрирован: 20 авг 2018, 11:57
Репутация: 0
Russia

Будка поцелуев / The Kissing Booth [мелодрама, комедия, 2018] WEBRip, Mvo [Jaskier]

#1

Сообщение salma3 » 03 сен 2018, 12:37

Год выхода: 2018
Жанр: мелодрама, комедия
Режиссер: Винс Марселло

В ролях: Джои Кинг, Джейкоб Элорди, Молли Рингуолд, Джоэл Кортни, Фрэнсис Шолто-Дуглас, Меган Янг, Нэйтан Линн, Робби Такер, Джессика Саттон, Морн Виссер и другие

О фильме:
Старшеклассница Эль — общительная, милая, но еще не испытавшая прелести поцелуев девушка. Ной — старший брат ее лучшего друга — дерзкий и ветреный, разбивший не одно девичье сердце. Решив однажды поучаствовать в «Будке поцелуев» на осеннем карнавале, Эль даже представить не могла, что подарит свой первый поцелуй Ною, и её жизнь изменится до неузнаваемости.



Страна: Великобритания / Komixx Entertainment
Продолжительность: 01:45:03
Перевод: Профессиональный (многоголосый, закадровый) Jaskier

Файл
Формат: AVI
Качество: WEBRip
Видео: XviD, 704x320, 23.976 fps, 1594 kbps
Звук: AC3, 6 ch, 384 kbps


MI
Общее
Полное имя : D:ЯскъерThe.Kissing.Booth.2018.NF.XviD.WEBRip.Jaskier.avi
Формат : AVI
Формат/Информация : Audio Video Interleave
Размер файла : 1,46 Гбайт
Продолжительность : 1 ч. 45 м.
Общий поток : 1987 Кбит/сек
Программа кодирования : VirtualDubMod 1.5.10.3 | http://www.virtualdub-fr.org || (build 2550/release)
Библиотека кодирования : VirtualDubMod build 2550/release

Видео
Идентификатор : 0
Формат : MPEG-4 Visual
Профиль формата : Advanced Simple@L5
Настройки формата : BVOP1 / Custom Matrix
Параметр BVOP формата : 1
Параметр QPel формата : Нет
Параметр GMC формата : Без точки перехода
Параметр матрицы формата : Выборочная
Идентификатор кодека : XVID
Идентификатор кодека/Подсказка : XviD
Продолжительность : 1 ч. 45 м.
Битрейт : 1594 Кбит/сек
Ширина : 704 пикселя
Высота : 320 пикселей
Соотношение сторон : 2,2:1
Частота кадров : 23,976 (24000/1001) кадра/сек
Частота кадров в оригинале : 23,976 (23976/1000) кадра/сек
Цветовое пространство : YUV
Субдискретизация насыщенности : 4:2:0
Битовая глубина : 8 бит
Тип развёртки : Прогрессивная
Метод сжатия : С потерями
Бит/(Пиксели*Кадры) : 0.295
Размер потока : 1,17 Гбайт (80%)
Библиотека кодирования : XviD 73

Аудио
Идентификатор : 1
Формат : AC-3
Формат/Информация : Audio Coding 3
Идентификатор кодека : 2000
Продолжительность : 1 ч. 45 м.
Вид битрейта : Постоянный
Битрейт : 384 Кбит/сек
Каналы : 6 каналов
Расположение каналов : Front: L C R, Side: L R, LFE
Частота : 48,0 КГц
Частота кадров : 31,250 кадров/сек (1536 SPF)
Битовая глубина : 16 бит
Метод сжатия : С потерями
Размер потока : 289 Мбайт (19%)
Выравнивание : Разделение по промежуткам
Продолжительность промежутка : 42 мс. (1,00 видеокадр)
Время предзагрузки промежутка : 500 мс.
Скриншоты

Релиз от: JASKiER
У вас нет необходимых прав для просмотра вложений в этом сообщении.

Ответить

Кто сейчас на конференции

Сейчас этот форум просматривают: нет зарегистрированных пользователей и 0 гостей