Чаппакуиддик / Chappaquiddick [Триллер, драма, история, 2017] BDRip, Mvo [Jaskier]

Торрент раздачи, не нашедшие своего раздела / Torrent distribution, not found its section
Ответить
Торрент Сидеров Личеров Размер
torrent_650987.torrent
0 0 1.46 ГБ

Автор темы
salma3
Супермодератор
Сообщения: 92
Зарегистрирован: 20 авг 2018, 11:57
Репутация: 0
Russia

Чаппакуиддик / Chappaquiddick [Триллер, драма, история, 2017] BDRip, Mvo [Jaskier]

#1

Сообщение salma3 » 03 сен 2018, 12:38

Год выхода: 2017
Жанр: Триллер, драма, история
Режиссер: Джон Кёрран

В ролях: Джейсон Кларк, Эд Хелмс, Джим Гэффиган, Кейт Мара, Брюс Дерн, Джон Фиоре, Джиллиан Маринер Гордон, Оливия Тирлби, Кэти Хенох, Лекси Рот
и другие

О фильме:
Жизнь и политическая карьера Теда Кеннеди оказываются под угрозой после автокатастрофы 1969 года, в которой погибла представительница его штаба.



Страна: Швеция, США
Продолжительность: 01:46:43
Перевод: Профессиональный (многоголосый, закадровый) Jaskier

Файл
Формат: AVI
Качество: WEBRip
Видео: XviD, 720x304, 23.976 fps, 1502 kbps
Звук: AC3, 6 ch, 448 kbps


MI
Общее
Полное имя : D:ЯскъерChappaquiddick.2017.BDRip.Jaskier.avi
Формат : AVI
Формат/Информация : Audio Video Interleave
Размер файла : 1,46 Гбайт
Продолжительность : 1 ч. 46 м.
Общий поток : 1959 Кбит/сек
Программа кодирования : VirtualDubMod 1.5.10.3 | http://www.virtualdub-fr.org || (build 2550/release)
Библиотека кодирования : VirtualDubMod build 2550/release

Видео
Идентификатор : 0
Формат : MPEG-4 Visual
Профиль формата : Advanced Simple@L5
Настройки формата : BVOP1 / Custom Matrix
Параметр BVOP формата : 1
Параметр QPel формата : Нет
Параметр GMC формата : Без точки перехода
Параметр матрицы формата : Выборочная
Идентификатор кодека : XVID
Идентификатор кодека/Подсказка : XviD
Продолжительность : 1 ч. 46 м.
Битрейт : 1502 Кбит/сек
Ширина : 720 пикселей
Высота : 304 пикселя
Соотношение сторон : 2,35:1
Частота кадров : 23,976 (24000/1001) кадра/сек
Цветовое пространство : YUV
Субдискретизация насыщенности : 4:2:0
Битовая глубина : 8 бит
Тип развёртки : Прогрессивная
Метод сжатия : С потерями
Бит/(Пиксели*Кадры) : 0.286
Размер потока : 1,12 Гбайт (77%)
Библиотека кодирования : XviD 73

Аудио
Идентификатор : 1
Формат : AC-3
Формат/Информация : Audio Coding 3
Идентификатор кодека : 2000
Продолжительность : 1 ч. 46 м.
Вид битрейта : Постоянный
Битрейт : 448 Кбит/сек
Каналы : 6 каналов
Расположение каналов : Front: L C R, Side: L R, LFE
Частота : 48,0 КГц
Частота кадров : 31,250 кадров/сек (1536 SPF)
Битовая глубина : 16 бит
Метод сжатия : С потерями
Размер потока : 342 Мбайт (23%)
Выравнивание : Разделение по промежуткам
Продолжительность промежутка : 42 мс. (1,00 видеокадр)
Время предзагрузки промежутка : 500 мс.
Скриншоты

Релиз от: JASKiER
У вас нет необходимых прав для просмотра вложений в этом сообщении.

Ответить

Кто сейчас на конференции

Сейчас этот форум просматривают: нет зарегистрированных пользователей и 1 гость