Последний акулий торнадо: Как раз во время / The Last Sharknado: It's About Time [Ужасы, фантастика, фэнтези, 2018] WEBR

Раздел для видео роликов, фильмов, мультфильмов... в общем для любого видео / Section for videos, movies, cartoons... in General for any video
Торрент Сидеров Личеров Размер
torrent_650952.torrent
0 0 1.02 ГБ

Автор темы
salma3
Супермодератор
Сообщения: 92
Зарегистрирован: 20 авг 2018, 11:57
Репутация: 0
Russia

Последний акулий торнадо: Как раз во время / The Last Sharknado: It's About Time [Ужасы, фантастика, фэнтези, 2018] WEBR

#1

Сообщение salma3 » 03 сен 2018, 12:38

Год выпуска: 2018
Жанр: Ужасы, фантастика, фэнтези
Режиссер: Энтони Ферранте

В ролях: Иэн Зиринг, Тара Рейд, Касси Скербо, Джуда Фридландер, Вивика А. Фокс, Брендан Петриццо, М. Стивен Фелти, Мати Мончея, Тодд Рекс, Дебра Уилсон

О фильме: Фин должен вернуться в прошлое и воссоединиться со своей командой борцов с акулами, чтобы остановить самый первый акулий торнадо и спасти человечество.



Выпущено: США, Syfy, The Asylum
Продолжительность: 01:26:42
Перевод: Любительский [двухголосый, закадровый]

Техданные
Качество: WEBRip
Видео: XviD, 1 472 Кбит/с, 720x406, 23.976 FPS
Аудио: MP3, 2 ch, 192 Кбит/с

Присутствует реклама!
РазвернутьСкриншоты
РазвернутьMI
General
Complete name : D:LakeFIlmsThe.Last.Sharknado.Its.About.Time.2018.SD.WEBRip.LakeFilms.avi
Format : AVI
Format/Info : Audio Video Interleave
Format profile : OpenDML
File size : 1.02 GiB
Duration : 1 h 26 min
Overall bit rate : 1 681 kb/s
Writing application : Lavf57.71.100

Video
ID : 0
Format : MPEG-4 Visual
Format profile : Simple@L1
Format settings, BVOP : No
Format settings, QPel : No
Format settings, GMC : No warppoints
Format settings, Matrix : Default (H.263)
Codec ID : FMP4
Duration : 1 h 26 min
Bit rate : 1 472 kb/s
Width : 720 pixels
Height : 406 pixels
Display aspect ratio : 16:9
Frame rate : 23.976 (24000/1001) FPS
Color space : YUV
Chroma subsampling : 4:2:0
Bit depth : 8 bits
Scan type : Progressive
Compression mode : Lossy
Bits/(Pixel*Frame) : 0.210
Stream size : 913 MiB (88%)
Writing library : Lavc57.89.100

Audio
ID : 1
Format : MPEG Audio
Format version : Version 1
Format profile : Layer 3
Format settings : Joint stereo / MS Stereo
Codec ID : 55
Codec ID/Hint : MP3
Duration : 1 h 26 min
Bit rate mode : Constant
Bit rate : 192 kb/s
Channel(s) : 2 channels
Sampling rate : 48.0 kHz
Compression mode : Lossy
Stream size : 119 MiB (11%)
Alignment : Aligned on interleaves
Interleave, duration : 24 ms (0.58 video frame)
Writing library : LAME3.99.5
У вас нет необходимых прав для просмотра вложений в этом сообщении.

Ответить Вложения 1

Кто сейчас на конференции

Сейчас этот форум просматривают: нет зарегистрированных пользователей и 0 гостей