Пылающий / Burning [Детектив, триллер, драма, 2018] WEB-DL 1080p, Dub [iTunes]

Торрент раздачи, не нашедшие своего раздела / Torrent distribution, not found its section
Ответить
Торрент Сидеров Личеров Размер
torrent_651274.torrent
0 0 5.08 ГБ

Автор темы
salma3
Супермодератор
Сообщения: 92
Зарегистрирован: 20 авг 2018, 11:57
Репутация: 0
Russia

Пылающий / Burning [Детектив, триллер, драма, 2018] WEB-DL 1080p, Dub [iTunes]

#1

Сообщение salma3 » 04 сен 2018, 20:01

Год выпуска: 2018
Жанр: Детектив, триллер, драма
Режиссер: Чан Дон Ли

В ролях: А Ин Ю, Стивен Юн, Чон Со Чон, Су Кён Ким, Сын Хо Чхве, Бок Ги Мин, Хэ Ра Пан, Бон Рён Ли

О фильме:
Молодой писатель Джонсу встречает старую знакомую, с которой они вместе росли. В ее жизни многое изменилось, и теперь перед ее очарованием сложно устоять. В поисках себя девушка отправляется в Африку и возвращается оттуда с новым другом по имени Бен. Бен — современный Гэтсби, у него нет изъянов, зато есть необычное хобби, узнав о котором, Джонсу лишается покоя.



Страна: Корея Южная
Продолжительность: 02:28:06
Перевод: Дублированный | iTunes

Файл
Формат: MKV
Качество: WEB-DL 1080p
Видео: MPEG-4 AVC, 1908x792, 4529 kbps, 23,976 fps
MI
General
Уникальный идентификатор : 226530966404897350918403976655570826801 (0xAA6C46F3800852FC9E1708E21D317631)
Полное имя : F:TorrentPilayushijWEB-DL1080p.mkv
Формат : Matroska
Версия формата : Version 4 / Version 2
Размер файла : 5.08 GiB
Продолжительность : 2 h 28 min
Общий поток : 4 915 kb/s
Дата кодирования : UTC 2018-09-04 12:29:04
Программа кодирования : mkvmerge v9.5.0 ('Quiet Fire') 64bit
Библиотека кодирования : libebml v1.3.4 + libmatroska v1.4.5

Video
Идентификатор : 1
Формат : AVC
Формат/Информация : Advanced Video Codec
Профиль формата : High@L4
Настройки формата : CABAC / 5 Ref Frames
Параметр CABAC формата : Yes
Параметр RefFrames формата : 5 frames
Идентификатор кодека : V_MPEG4/ISO/AVC
Продолжительность : 2 h 28 min
Битрейт : 4 529 kb/s
Ширина : 1 908 pixels
Высота : 792 pixels
Соотношение сторон : 2.40:1
Режим частоты кадров : Constant
Частота кадров : 23.976 FPS
Цветовое пространство : YUV
Субдискретизация насыщенности : 4:2:0
Битовая глубина : 8 bits
Тип развёртки : Progressive
Бит/(Пиксели*Кадры) : 0.125
Размер потока : 4.69 GiB (92%)
Язык : English
Default : Yes
Forced : No
Цветовой диапазон : Limited
Основные цвета : BT.709
Характеристики трансфера : BT.709
Коэффициенты матрицы : BT.709

Audio
Идентификатор : 2
Формат : AC-3
Формат/Информация : Audio Coding 3
Идентификатор кодека : A_AC3
Продолжительность : 2 h 28 min
Вид битрейта : Constant
Битрейт : 384 kb/s
Каналы : 6 channels
Расположение каналов : Front: L C R, Side: L R, LFE
Частота : 48.0 kHz
Частота кадров : 31.250 FPS (1536 SPF)
Битовая глубина : 16 bits
Метод сжатия : Lossy
Размер потока : 407 MiB (8%)
Язык : Russian
Default : Yes
Forced : No

Menu
00:00:00.000 : en:1
00:02:42.000 : en:2
00:11:45.000 : en:3
00:22:01.000 : en:4
00:31:41.000 : en:5
00:43:19.000 : en:6
00:53:52.000 : en:7
01:02:24.000 : en:8
01:12:58.000 : en:9
01:21:33.000 : en:10
01:32:06.000 : en:11
01:42:57.000 : en:12
01:51:12.000 : en:13
02:05:41.000 : en:14
02:14:28.000 : en:15
02:25:00.000 : en:16
Скриншоты

У вас нет необходимых прав для просмотра вложений в этом сообщении.

Ответить

Кто сейчас на конференции

Сейчас этот форум просматривают: нет зарегистрированных пользователей и 2 гостя