Пылающий / Burning [Детектив, триллер, драма, 2018] WEB-DLRip, Dub [iTunes]

Торрент раздачи, не нашедшие своего раздела / Torrent distribution, not found its section
Ответить
Торрент Сидеров Личеров Размер
torrent_651272.torrent
0 0 2.16 ГБ

Автор темы
salma3
Супермодератор
Сообщения: 92
Зарегистрирован: 20 авг 2018, 11:57
Репутация: 0
Russia

Пылающий / Burning [Детектив, триллер, драма, 2018] WEB-DLRip, Dub [iTunes]

#1

Сообщение salma3 » 04 сен 2018, 20:01

Год выпуска: 2018
Жанр: Детектив, триллер, драма
Режиссер: Чан Дон Ли

В ролях: А Ин Ю, Стивен Юн, Чон Со Чон, Су Кён Ким, Сын Хо Чхве, Бок Ги Мин, Хэ Ра Пан, Бон Рён Ли

О фильме:
Молодой писатель Джонсу встречает старую знакомую, с которой они вместе росли. В ее жизни многое изменилось, и теперь перед ее очарованием сложно устоять. В поисках себя девушка отправляется в Африку и возвращается оттуда с новым другом по имени Бен. Бен — современный Гэтсби, у него нет изъянов, зато есть необычное хобби, узнав о котором, Джонсу лишается покоя.



Страна: Корея Южная
Продолжительность: 02:28:06
Перевод: Дублированный | iTunes

Файл
Формат: AVI
Качество: WEB-DLRip
Видео: Xvid 73, 720x304, ~1696 kbps, 23,976 fps
Звук: русский, AC3, 5.1 ch, 48 kHz, 384 kbps | iTunes
MI
General
Полное имя : F:TorrentPilayushijWEB-DLRip.avi
Формат : AVI
Формат/Информация : Audio Video Interleave
Профиль формата : OpenDML
Размер файла : 2.16 GiB
Продолжительность : 2 h 28 min
Общий поток : 2 090 kb/s
Программа кодирования : XviD4PSP 6.0 / 54.27.101

Video
Идентификатор : 0
Формат : MPEG-4 Visual
Профиль формата : Advanced Simple@L5
Настройки формата : BVOP2 / Custom Matrix
Параметр BVOP формата : 2
Параметр QPel формата : No
Параметр GMC формата : No warppoints
Параметр матрицы формата : Custom
Идентификатор кодека : XVID
Идентификатор кодека/Подсказка : XviD
Продолжительность : 2 h 28 min
Битрейт : 1 696 kb/s
Ширина : 720 pixels
Высота : 304 pixels
Соотношение сторон : 2.35:1
Частота кадров : 23.976 (24000/1001) FPS
Цветовое пространство : YUV
Субдискретизация насыщенности : 4:2:0
Битовая глубина : 8 bits
Тип развёртки : Progressive
Метод сжатия : Lossy
Бит/(Пиксели*Кадры) : 0.323
Размер потока : 1.75 GiB (81%)
Библиотека кодирования : XviD 73

Audio
Идентификатор : 1
Формат : AC-3
Формат/Информация : Audio Coding 3
Идентификатор кодека : 2000
Продолжительность : 2 h 28 min
Вид битрейта : Constant
Битрейт : 384 kb/s
Каналы : 6 channels
Расположение каналов : Front: L C R, Side: L R, LFE
Частота : 48.0 kHz
Частота кадров : 31.250 FPS (1536 SPF)
Битовая глубина : 16 bits
Метод сжатия : Lossy
Размер потока : 407 MiB (18%)
Выравнивание : Aligned on interleaves
Продолжительность промежутка : 32 ms (0.77 video frame)
Скриншоты

У вас нет необходимых прав для просмотра вложений в этом сообщении.

Ответить

Кто сейчас на конференции

Сейчас этот форум просматривают: нет зарегистрированных пользователей и 0 гостей