Пылающий / Burning [Детектив, триллер, драма, 2018] WEB-DLRip-AVC, Dub [iTunes]

Торрент раздачи, не нашедшие своего раздела / Torrent distribution, not found its section
Ответить
Торрент Сидеров Личеров Размер
torrent_651273.torrent
0 0 2.18 ГБ

Автор темы
salma3
Супермодератор
Сообщения: 92
Зарегистрирован: 20 авг 2018, 11:57
Репутация: 0
Russia

Пылающий / Burning [Детектив, триллер, драма, 2018] WEB-DLRip-AVC, Dub [iTunes]

#1

Сообщение salma3 » 04 сен 2018, 20:02

Год выпуска: 2018
Жанр: Детектив, триллер, драма
Режиссер: Чан Дон Ли

В ролях: А Ин Ю, Стивен Юн, Чон Со Чон, Су Кён Ким, Сын Хо Чхве, Бок Ги Мин, Хэ Ра Пан, Бон Рён Ли

О фильме:
Молодой писатель Джонсу встречает старую знакомую, с которой они вместе росли. В ее жизни многое изменилось, и теперь перед ее очарованием сложно устоять. В поисках себя девушка отправляется в Африку и возвращается оттуда с новым другом по имени Бен. Бен — современный Гэтсби, у него нет изъянов, зато есть необычное хобби, узнав о котором, Джонсу лишается покоя.



Страна: Корея Южная
Продолжительность: 02:28:06
Перевод: Дублированный | iTunes

Файл
Формат: MKV
Качество: WEB-DLRip
Видео: MPEG-4 AVC, 1024x426, ~1720 kbps, 23,976 fps
Звук: русский, AC3, 5.1 ch, 48 kHz, 384 kbps | iTunes


MI
General
Уникальный идентификатор : 253437480951293790385800908542219652338 (0xBEAA488A3E237B0498B60B3440B80CF2)
Полное имя : F:TorrentPilayushijWEB-DLRip-AVC.mkv
Формат : Matroska
Версия формата : Version 4 / Version 2
Размер файла : 2.18 GiB
Продолжительность : 2 h 28 min
Общий поток : 2 106 kb/s
Дата кодирования : UTC 2018-09-02 22:05:21
Программа кодирования : mkvmerge v9.5.0 ('Quiet Fire') 64bit
Библиотека кодирования : libebml v1.3.4 + libmatroska v1.4.5

Video
Идентификатор : 1
Формат : AVC
Формат/Информация : Advanced Video Codec
Профиль формата : High@L4.1
Настройки формата : CABAC / 10 Ref Frames
Параметр CABAC формата : Yes
Параметр RefFrames формата : 10 frames
Идентификатор кодека : V_MPEG4/ISO/AVC
Продолжительность : 2 h 28 min
Битрейт : 1 720 kb/s
Ширина : 1 024 pixels
Высота : 426 pixels
Соотношение сторон : 2.40:1
Режим частоты кадров : Constant
Частота кадров : 23.976 (24000/1001) FPS
Цветовое пространство : YUV
Субдискретизация насыщенности : 4:2:0
Битовая глубина : 8 bits
Тип развёртки : Progressive
Бит/(Пиксели*Кадры) : 0.164
Размер потока : 1.78 GiB (82%)
Библиотека кодирования : x264 core 155 r2901M 7d0ff22
Настройки программы : cabac=1 / ref=10 / deblock=1:-2:-2 / analyse=0x3:0x133 / me=umh / subme=11 / psy=1 / psy_rd=1.00:0.00 / mixed_ref=1 / me_range=32 / chroma_me=1 / trellis=2 / 8x8dct=1 / cqm=0 / deadzone=21,11 / fast_pskip=0 / chroma_qp_offset=-2 / threads=5 / lookahead_threads=1 / sliced_threads=0 / nr=0 / decimate=0 / interlaced=0 / bluray_compat=0 / constrained_intra=0 / bframes=10 / b_pyramid=2 / b_adapt=2 / b_bias=0 / direct=3 / weightb=1 / open_gop=0 / weightp=2 / keyint=240 / keyint_min=24 / scenecut=40 / intra_refresh=0 / rc_lookahead=120 / rc=2pass / mbtree=0 / bitrate=1720 / ratetol=1.0 / qcomp=0.70 / qpmin=0 / qpmax=69 / qpstep=4 / cplxblur=20.0 / qblur=0.5 / vbv_maxrate=62500 / vbv_bufsize=78125 / nal_hrd=none / filler=0 / ip_ratio=1.40 / pb_ratio=1.30 / aq=1:1.00
Язык : English
Default : Yes
Forced : No
Цветовой диапазон : Limited
Основные цвета : BT.709
Характеристики трансфера : BT.709
Коэффициенты матрицы : BT.709

Audio
Идентификатор : 2
Формат : AC-3
Формат/Информация : Audio Coding 3
Идентификатор кодека : A_AC3
Продолжительность : 2 h 28 min
Вид битрейта : Constant
Битрейт : 384 kb/s
Каналы : 6 channels
Расположение каналов : Front: L C R, Side: L R, LFE
Частота : 48.0 kHz
Частота кадров : 31.250 FPS (1536 SPF)
Битовая глубина : 16 bits
Метод сжатия : Lossy
Размер потока : 407 MiB (18%)
Язык : Russian
Default : Yes
Forced : No

Menu
00:00:00.000 : :1
00:02:42.000 : :2
00:11:45.000 : :3
00:22:01.000 : :4
00:31:41.000 : :5
00:43:19.000 : :6
00:53:52.000 : :7
01:02:24.000 : :8
01:12:58.000 : :9
01:21:33.000 : :10
01:32:06.000 : :11
01:42:57.000 : :12
01:51:12.000 : :13
02:05:41.000 : :14
02:14:28.000 : :15
02:25:00.000 : :16
Скриншоты

У вас нет необходимых прав для просмотра вложений в этом сообщении.

Ответить

Кто сейчас на конференции

Сейчас этот форум просматривают: нет зарегистрированных пользователей и 0 гостей