Мир Юрского периода 2 / Jurassic World: Fallen Kingdom [фантастика, боевик, приключения, 2018] WEB-DLRip-AVC, Dub [iTune

Торрент раздачи, не нашедшие своего раздела / Torrent distribution, not found its section
Ответить
Торрент Сидеров Личеров Размер
torrent_651552.torrent
0 0 1.46 ГБ

Автор темы
salma3
Супермодератор
Сообщения: 92
Зарегистрирован: 20 авг 2018, 11:57
Репутация: 0
Russia

Мир Юрского периода 2 / Jurassic World: Fallen Kingdom [фантастика, боевик, приключения, 2018] WEB-DLRip-AVC, Dub [iTune

#1

Сообщение salma3 » 06 сен 2018, 10:49

Год выхода: 2018
Жанр: фантастика, боевик, приключения
Режиссер: Хуан Антонио Байона

В ролях: Крис Пратт, Брайс Даллас Ховард, Рейф Сполл, Джастис Смит, Даниэлла Пинеда, Джеймс Кромуэлл, Тоби Джонс, Тед Левайн, Джефф Голдблюм, Б.Д. Вонг

О фильме:
На острове Нублар, где не так давно располагался парк развлечений с динозаврами, правит бал дикая природа. Но без людей все далеко не так спокойно, как могло бы показаться. Основатели парка приняли решение построить его, несмотря на активный вулкан, расположенный в сердце острова. Вулкан пробудился и рискует утопить остров в лаве. Управляющая парком Клэр Дэринг уговаривает дрессировщика Оуэна Грэди вернуться в бывший парк и спасти динозавров от неминуемой гибели.



Страна: США
Продолжительность: 02:08:17
Перевод: Профессиональный (дублированный)[iTunes]

Файл
Кодек: H.264
Качество: WEB-DLRip-AVC
Видео: MPEG-4 AVC, 874x366 (2.40:1), 23.976 fps, ~1239 kbps avg, 0.162 bit/pixel
Звук: 48 kHz, AC3 Dolby Digital, 3/2 (L,C,R,l,r) + LFE ch, ~384 kbps avg


MediaInfo
Complete name : D:РаздачаМир Юрского периода 2 (2018) WEB-DLRip-AVC_ivanes20031987.mkv
Format : Matroska
Format version : Version 2
File size : 1.46 GiB
Duration : 2 h 8 min
Overall bit rate : 1 625 kb/s
Movie name : Мир Юрского периода 2 (2018) WEB-DLRip-AVC_ivanes20031987
Encoded date : UTC 2018-09-06 03:16:14
Writing application : mkvmerge v4.4.0 ('Die Wiederkehr') сборка от Jan 3 2011 21:40:45
Writing library : libebml v1.0.0 + libmatroska v1.0.0
Cover : Yes
Attachments : cover.jpg

Video
ID : 1
Format : AVC
Format/Info : Advanced Video Codec
Format profile : High@L4.1
Format settings, CABAC : Yes
Format settings, RefFrames : 10 frames
Codec ID : V_MPEG4/ISO/AVC
Duration : 2 h 8 min
Bit rate : 1 239 kb/s
Width : 874 pixels
Height : 366 pixels
Display aspect ratio : 2.40:1
Frame rate mode : Constant
Frame rate : 23.976 (24000/1001) FPS
Color space : YUV
Chroma subsampling : 4:2:0
Bit depth : 8 bits
Scan type : Progressive
Bits/(Pixel*Frame) : 0.162
Stream size : 1.08 GiB (74%)
Title : Rip by ivanes20031987
Writing library : x264 core 155 r2901 7d0ff22
Encoding settings : cabac=1 / ref=10 / deblock=1:-3:-3 / analyse=0x3:0x113 / me=umh / subme=10 / psy=1 / psy_rd=1.00:0.00 / mixed_ref=1 / me_range=32 / chroma_me=1 / trellis=2 / 8x8dct=1 / cqm=0 / deadzone=21,11 / fast_pskip=0 / chroma_qp_offset=-2 / threads=12 / lookahead_threads=2 / sliced_threads=0 / nr=0 / decimate=1 / interlaced=0 / bluray_compat=0 / constrained_intra=0 / bframes=11 / b_pyramid=2 / b_adapt=2 / b_bias=0 / direct=1 / weightb=1 / open_gop=0 / weightp=2 / keyint=240 / keyint_min=23 / scenecut=40 / intra_refresh=0 / rc_lookahead=60 / rc=2pass / mbtree=0 / bitrate=1239 / ratetol=1.0 / qcomp=0.60 / qpmin=0 / qpmax=69 / qpstep=4 / cplxblur=20.0 / qblur=0.5 / vbv_maxrate=50000 / vbv_bufsize=62500 / nal_hrd=none / filler=0 / ip_ratio=1.40 / pb_ratio=1.30 / aq=1:1.00
Default : Yes
Forced : No

Audio
ID : 2
Format : AC-3
Format/Info : Audio Coding 3
Format settings, Endianness : Big
Codec ID : A_AC3
Duration : 2 h 8 min
Bit rate mode : Constant
Bit rate : 384 kb/s
Channel(s) : 6 channels
Channel positions : Front: L C R, Side: L R, LFE
Sampling rate : 48.0 kHz
Frame rate : 31.250 FPS (1536 SPF)
Bit depth : 16 bits
Compression mode : Lossy
Stream size : 352 MiB (24%)
Title : iTunes
Language : Russian
Service kind : Complete Main
Default : Yes
Forced : No
Скриншоты
У вас нет необходимых прав для просмотра вложений в этом сообщении.

Ответить

Кто сейчас на конференции

Сейчас этот форум просматривают: нет зарегистрированных пользователей и 0 гостей