Гонщик Строкер / Stroker Ace [Мелодрама, комедия, спорт, 1983] WEB-DL 1080p, Mvo

Торрент раздачи, не нашедшие своего раздела / Torrent distribution, not found its section
Ответить
Торрент Сидеров Личеров Размер
torrent_652590.torrent
8 12 8.87 ГБ

Автор темы
salma3
Супермодератор
Сообщения: 92
Зарегистрирован: 20 авг 2018, 11:57
Репутация: 0
Russia

Гонщик Строкер / Stroker Ace [Мелодрама, комедия, спорт, 1983] WEB-DL 1080p, Mvo

#1

Сообщение salma3 » 11 сен 2018, 10:05

Год выпуска: 1983
Выпущено: США, Universal Pictures, Warner Bros. Pictures
Жанр: Мелодрама, комедия, спорт
Режиссер: Хэл Нидэм

В ролях: Бёрт Рейнолдс, Нед Битти, Джим Нэйборс, Паркер Стивенсон, Лони Андерсон, Джон Байнер, Фрэнк О. Хилл, Кассандра Петерсон, Бубба Смит, Уоррен Стивенс, Элфи Уайз, Джеймс С. Льюис, Нил Боннетт, Дэйл Эрнхардт, Гарри П. Гант, Терри Лабонте, Бенни Парсонс, Кайл Петти, Тим Ричмонд, Рики Радд

О фильме: Эйс Строкер, гонщик экстракласса, находящийся на пике своей спортивной карьеры, вынужден делать не то, что он хочет, а что ему приказывает докучливый спонсор, владелец сети ресторанов быстрого обслуживания. Когда Строкеру предлагают обрядиться в гигантскую курицу, терпение гонщика лопается, и он восстает против своего «хозяина».

Продолжительность: 01:34:29
Перевод: Профессиональный многоголосый
Субтитры: Английские
Навигация по главам: Есть

Файл
Качество: WEB-DL 1080p
Видео: MPEG-4 AVC, 12,8 Мбит/сек, 1920x1080, 23,976 кадра/сек
Аудио #1: AC3, 2 ch, 192 Кбит/сек | Русский, профессиональный (многоголосый закадровый) СТС
Аудио #2: EAC3, 2 ch, 224 Кбит/сек | Английский, оригинал


Скриншоты
Инфо-файл
Общее
Уникальный идентификатор : 208985750675514641080543810721775868956 (0x9D3931074C82849BBBB45605985FDC1C)
Полное имя : Гонщик.Строкер.1983.WEB-DL.1080p.mkv
Формат : Matroska
Версия формата : Version 2
Размер файла : 8,87 Гбайт
Продолжительность : 1 ч. 34 м.
Режим общего битрейта : Переменный
Общий поток : 13,4 Мбит/сек
Дата кодирования : UTC 2018-09-09 22:54:53
Программа кодирования : mkvmerge v5.8.0 ('No Sleep / Pillow') built on Sep 2 2012 15:37:04
Библиотека кодирования : libebml v1.2.3 + libmatroska v1.3.0

Видео
Идентификатор : 1
Формат : AVC
Формат/Информация : Advanced Video Codec
Профиль формата : High@L4
Настройки формата : CABAC / 4 Ref Frames
Параметр CABAC формата : Да
Параметр RefFrames формата : 4 кадра
Идентификатор кодека : V_MPEG4/ISO/AVC
Продолжительность : 1 ч. 34 м.
Вид битрейта : Переменный
Битрейт : 12,8 Мбит/сек
Максимальный битрейт : 15,0 Мбит/сек
Ширина : 1920 пикселей
Высота : 1080 пикселей
Соотношение сторон : 16:9
Режим частоты кадров : Постоянный
Частота кадров : 23,976 (24000/1001) кадра/сек
Цветовое пространство : YUV
Субдискретизация насыщенности : 4:2:0
Битовая глубина : 8 бит
Тип развёртки : Прогрессивная
Бит/(Пиксели*Кадры) : 0.257
Размер потока : 8,42 Гбайт (95%)
Библиотека кодирования : x264 core 148 r2623 d5b2374
Настройки программы : cabac=1 / ref=4 / deblock=1:-1:-1 / analyse=0x3:0x133 / me=umh / subme=9 / psy=1 / psy_rd=1.00:0.15 / mixed_ref=1 / me_range=24 / chroma_me=1 / trellis=2 / 8x8dct=1 / cqm=0 / deadzone=21,11 / fast_pskip=1 / chroma_qp_offset=-3 / threads=34 / lookahead_threads=5 / sliced_threads=0 / nr=150 / decimate=1 / interlaced=0 / bluray_compat=0 / constrained_intra=0 / bframes=8 / b_pyramid=2 / b_adapt=2 / b_bias=0 / direct=3 / weightb=1 / open_gop=0 / weightp=2 / keyint=120 / keyint_min=61 / scenecut=0 / intra_refresh=0 / rc_lookahead=120 / rc=crf / mbtree=1 / crf=18.0 / qcomp=0.60 / qpmin=0 / qpmax=69 / qpstep=4 / vbv_maxrate=15000 / vbv_bufsize=31250 / crf_max=0.0 / nal_hrd=vbr / filler=0 / ip_ratio=1.40 / aq=3:1.00
Язык : English
По умолчанию : Да
Принудительно : Нет
Цветовой диапазон : Limited
Основные цвета : BT.709
Характеристики трансфера : BT.709
Коэффициенты матрицы : BT.709

Аудио #1
Идентификатор : 2
Формат : AC-3
Формат/Информация : Audio Coding 3
Идентификатор кодека : A_AC3
Продолжительность : 1 ч. 34 м.
Вид битрейта : Постоянный
Битрейт : 192 Кбит/сек
Каналы : 2 канала
Расположение каналов : Front: L R
Частота : 48,0 КГц
Частота кадров : 31,250 кадров/сек (1536 SPF)
Битовая глубина : 16 бит
Метод сжатия : С потерями
Размер потока : 130 Мбайт (1%)
Заголовок : MVO | СТС
Язык : Russian
По умолчанию : Да
Принудительно : Нет

Аудио #2
Идентификатор : 3
Формат : E-AC-3
Формат/Информация : Enhanced Audio Coding 3
Идентификатор кодека : A_EAC3
Продолжительность : 1 ч. 34 м.
Вид битрейта : Постоянный
Битрейт : 224 Кбит/сек
Каналы : 2 канала
Расположение каналов : Front: L R
Частота : 48,0 КГц
Частота кадров : 187,500 кадров/сек (256 SPF)
Метод сжатия : С потерями
Размер потока : 151 Мбайт (2%)
Заголовок : Original
Язык : English
По умолчанию : Нет
Принудительно : Нет

Текст
Идентификатор : 4
Формат : UTF-8
Идентификатор кодека : S_TEXT/UTF8
Идентификатор кодека/Информация : UTF-8 Plain Text
Заголовок : SDH
Язык : English
По умолчанию : Нет
Принудительно : Нет

Меню
00:00:00.000 : en:01. Moonshine Run Credits (Stroker Ace).
00:04:05.849 : en:02. Dynamic Entrance.
00:07:00.223 : en:03. Torkle Works The Pit.
00:09:47.323 : en:04. Making Moves; Torkle And James.
00:12:33.656 : en:05. Sidelined.
00:14:35.411 : en:06. Load Of Cement.
00:15:59.729 : en:07. Miss Daytona (Southern Loving, What Have You Got To Lose?).
00:18:32.548 : en:08. Fastest Chicken.
00:21:42.871 : en:09. Post-Victory Tinkering.
00:23:12.995 : en:10. Brifed By Pembrook.
00:26:50.579 : en:11. Packing 'Em In (Amazing Grace).
00:29:19.361 : en:12. Selling Chiken.
00:33:03.852 : en:13. New Wardrobe.
00:36:54.749 : en:14. Driver In A Fowl Mood.
00:40:33.668 : en:15. Rendezvous For Three.
00:46:25.586 : en:16. Getting Into It.
00:50:36.770 : en:17. On The Bed, Under The Chassis.
00:53:16.630 : en:18. He's Mad.
00:55:10.510 : en:19. The Seegles.
00:57:16.436 : en:20. Who Would Know?
01:01:46.206 : en:21. A Punch For Pembrook.
01:03:42.855 : en:22. It's A Deal.
01:06:59.318 : en:23. Ded Don't Know.
01:08:28.808 : en:24. Stroker's Choice.
01:11:02.094 : en:25. They're Off.
01:13:57.236 : en:26. The Messenger.
01:17:07.159 : en:27. Crackup.
01:20:25.090 : en:28. A New Jack Man.
01:21:37.562 : en:29. Fired!
01:24:46.451 : en:30. "How's This For Spectacular?"
01:27:23.241 : en:31. #1.
01:29:40.211 : en:32. Outtake End Credits.
Дополнительная информация
• Исходник видео WEB-DL Amazon.
Сборка:
У вас нет необходимых прав для просмотра вложений в этом сообщении.

Ответить

Кто сейчас на конференции

Сейчас этот форум просматривают: нет зарегистрированных пользователей и 0 гостей