Дьяволица / She-Devil [Комедия, экранизация, 1989] BDRip 720p, Mvo

Раздел для видео роликов, фильмов, мультфильмов... в общем для любого видео / Section for videos, movies, cartoons... in General for any video
Торрент Сидеров Личеров Размер
torrent_652593.torrent
15 14 5.16 ГБ

Автор темы
salma3
Супермодератор
Сообщения: 92
Зарегистрирован: 20 авг 2018, 11:57
Репутация: 0
Russia

Дьяволица / She-Devil [Комедия, экранизация, 1989] BDRip 720p, Mvo

#1

Сообщение salma3 » 11 сен 2018, 10:07

Год выпуска: 1989
Выпущено: США, A Seidelman/Brett Production, Orion Pictures Corporation
Жанр: Комедия, экранизация
Режиссер: Сьюзэн Сейдельман

В ролях: Мэрил Стрип, Розанна Барр, Эд Бегли мл., Линда Хант, Сильвия Майлз, Элисбет Питерс, Брайан Ларкин, Эй Мартинез, Мария Питилло, Мэри Луиза Уилсон, Сьюзэн Уиллис, Джек Гилпин, Джун Гейбл, Джанин Джойс, Дебора Раш

О фильме:
Малопривлекательная домохозяйка (Барр) мстит бросившему ее мужу и разлучнице, известной писательнице любовных романов (Стрип). Сама Барр Ничего собой не представляет, но Стрип в роли самовлюбленной и купающейся в славе романистки настолько хороша, что фильм можно посмотреть только ради нее. Экранизация романа Фэй Уэлдон, снятая в стиле гротеска и черного юмора.

Продолжительность: 01:39:22
Перевод: Профессиональный многоголосый, профессиональный двухголосый, авторский
Субтитры: Английские
Навигация по главам: Есть

Файл
Качество: BDRip 720p
Видео: MPEG-4 AVC, 6478 Кбит/сек, 1276x694, 23,976 кадра/сек
Аудио #1: AC3, 2 ch, 192 Кбит/сек | Русский, профессиональный (двухголосый закадровый) НТВ+
Аудио #2: AC3, 2 ch, 192 Кбит/сек | Русский, профессиональный (многоголосый закадровый) Пятый Канал
Аудио #3: AC3, 2 ch, 192 Кбит/сек | Русский, профессиональный (многоголосый закадровый) СВ-Дубль, Мосфильм, ВГТРК, 1997 г.
Аудио #4: AC3, 2 ch, 192 Кбит/сек | Русский, авторский (одноголосый закадровый) Сергей Дьяков
Аудио #5: AC3, 2 ch, 192 Кбит/сек | Английский, оригинал


РазвернутьСкриншоты
РазвернутьИнфо-файл
x264 [info]: frame I:779 Avg QP:15.38 size:123070
x264 [info]: frame P:31332 Avg QP:18.19 size: 59354
x264 [info]: frame B:110833 Avg QP:20.08 size: 25899
-----------------------------------------------------
Общее
Уникальный идентификатор : 221736803635891773865850326516674772433 (0xA6D0F47A313F5F2281F5AC719682BDD1)
Полное имя : Дьяволица.1989.BDRip.720p.KORSAR.mkv
Формат : Matroska
Версия формата : Version 2
Размер файла : 5,16 Гбайт
Продолжительность : 1 ч. 39 м.
Общий поток : 7437 Кбит/сек
Дата кодирования : UTC 2018-09-10 02:24:31
Программа кодирования : mkvmerge v5.8.0 ('No Sleep / Pillow') built on Sep 2 2012 15:37:04
Библиотека кодирования : libebml v1.2.3 + libmatroska v1.3.0

Видео
Идентификатор : 1
Формат : AVC
Формат/Информация : Advanced Video Codec
Профиль формата : High@L4.1
Настройки формата : CABAC / 9 Ref Frames
Параметр CABAC формата : Да
Параметр RefFrames формата : 9 кадров
Идентификатор кодека : V_MPEG4/ISO/AVC
Продолжительность : 1 ч. 39 м.
Битрейт : 6478 Кбит/сек
Ширина : 1276 пикселей
Высота : 694 пикселя
Соотношение сторон : 1,85:1
Режим частоты кадров : Постоянный
Частота кадров : 23,976 (24000/1001) кадра/сек
Цветовое пространство : YUV
Субдискретизация насыщенности : 4:2:0
Битовая глубина : 8 бит
Тип развёртки : Прогрессивная
Бит/(Пиксели*Кадры) : 0.305
Размер потока : 4,39 Гбайт (85%)
Заголовок : RIP | MZMA
Библиотека кодирования : x264 core 152 r2851kMod ba24899
Настройки программы : cabac=1 / ref=9 / deblock=1:-3:-3 / analyse=0x3:0x113 / me=umh / subme=11 / psy=1 / fade_compensate=0.00 / psy_rd=1.00:0.00 / mixed_ref=1 / me_range=48 / chroma_me=1 / trellis=2 / 8x8dct=1 / cqm=0 / deadzone=21,11 / fast_pskip=0 / chroma_qp_offset=-2 / threads=6 / lookahead_threads=1 / sliced_threads=0 / nr=0 / decimate=0 / interlaced=0 / bluray_compat=0 / constrained_intra=0 / bframes=16 / b_pyramid=2 / b_adapt=2 / b_bias=0 / direct=3 / weightb=1 / open_gop=0 / weightp=2 / keyint=240 / keyint_min=23 / scenecut=40 / intra_refresh=0 / rc_lookahead=40 / rc=2pass / mbtree=0 / bitrate=6478 / ratetol=1.0 / qcomp=0.60 / qpmin=0 / qpmax=69 / qpstep=4 / cplxblur=20.0 / qblur=0.5 / vbv_maxrate=50000 / vbv_bufsize=62500 / nal_hrd=none / filler=0 / ip_ratio=1.40 / pb_ratio=1.30 / aq=3:0.80
Язык : English
По умолчанию : Да
Принудительно : Нет
Цветовой диапазон : Limited
Основные цвета : BT.709
Характеристики трансфера : BT.709
Коэффициенты матрицы : BT.709

Аудио #1
Идентификатор : 2
Формат : AC-3
Формат/Информация : Audio Coding 3
Идентификатор кодека : A_AC3
Продолжительность : 1 ч. 39 м.
Вид битрейта : Постоянный
Битрейт : 192 Кбит/сек
Каналы : 2 канала
Расположение каналов : Front: L R
Частота : 48,0 КГц
Частота кадров : 31,250 кадров/сек (1536 SPF)
Битовая глубина : 16 бит
Метод сжатия : С потерями
Размер потока : 137 Мбайт (3%)
Заголовок : DVO | НТВ+
Язык : Russian
По умолчанию : Да
Принудительно : Нет

Аудио #2
Идентификатор : 3
Формат : AC-3
Формат/Информация : Audio Coding 3
Идентификатор кодека : A_AC3
Продолжительность : 1 ч. 39 м.
Вид битрейта : Постоянный
Битрейт : 192 Кбит/сек
Каналы : 2 канала
Расположение каналов : Front: L R
Частота : 48,0 КГц
Частота кадров : 31,250 кадров/сек (1536 SPF)
Битовая глубина : 16 бит
Метод сжатия : С потерями
Размер потока : 137 Мбайт (3%)
Заголовок : DVO | Пятый Канал
Язык : Russian
По умолчанию : Нет
Принудительно : Нет

Аудио #3
Идентификатор : 4
Формат : AC-3
Формат/Информация : Audio Coding 3
Идентификатор кодека : A_AC3
Продолжительность : 1 ч. 39 м.
Вид битрейта : Постоянный
Битрейт : 192 Кбит/сек
Каналы : 2 канала
Расположение каналов : Front: L R
Частота : 48,0 КГц
Частота кадров : 31,250 кадров/сек (1536 SPF)
Битовая глубина : 16 бит
Метод сжатия : С потерями
Размер потока : 137 Мбайт (3%)
Заголовок : MVO | СВ-Дубль
Язык : English
По умолчанию : Нет
Принудительно : Нет

Аудио #4
Идентификатор : 5
Формат : AC-3
Формат/Информация : Audio Coding 3
Идентификатор кодека : A_AC3
Продолжительность : 1 ч. 39 м.
Вид битрейта : Постоянный
Битрейт : 192 Кбит/сек
Каналы : 2 канала
Расположение каналов : Front: L R
Частота : 48,0 КГц
Частота кадров : 31,250 кадров/сек (1536 SPF)
Битовая глубина : 16 бит
Метод сжатия : С потерями
Размер потока : 137 Мбайт (3%)
Заголовок : AVO | С. Дьяков
Язык : Russian
По умолчанию : Нет
Принудительно : Нет

Аудио #5
Идентификатор : 6
Формат : AC-3
Формат/Информация : Audio Coding 3
Идентификатор кодека : A_AC3
Продолжительность : 1 ч. 39 м.
Вид битрейта : Постоянный
Битрейт : 192 Кбит/сек
Каналы : 2 канала
Расположение каналов : Front: L R
Частота : 48,0 КГц
Частота кадров : 31,250 кадров/сек (1536 SPF)
Битовая глубина : 16 бит
Метод сжатия : С потерями
Размер потока : 137 Мбайт (3%)
Заголовок : Original
Язык : English
По умолчанию : Нет
Принудительно : Нет

Текст
Идентификатор : 7
Формат : UTF-8
Идентификатор кодека : S_TEXT/UTF8
Идентификатор кодека/Информация : UTF-8 Plain Text
Язык : English
По умолчанию : Нет
Принудительно : Нет

Меню
00:00:00.000 : en:Main Title/Beauty
00:06:26.071 : en:Lust At First Sight
00:14:50.071 : en:A Ruthless Affair
00:20:20.071 : en:Dead Rodent Dinner
00:24:45.071 : en:The Devil Made Her
00:30:41.071 : en:Family Togetherness
00:39:00.071 : en:Trouble in Paradise
00:46:34.071 : en:Incontient Insolence
00:54:53.071 : en:Vesta Rose
01:01:03.071 : en:Collapsing Careers"
01:11:40.071 : en:Incriminating Evidence
01:17:41.071 : en:Laying Down The Law
01:21:25.071 : en:Bye Bye Bobby
01:24:27.071 : en:Judgement Day
01:30:09.071 : en:People Can Change
01:35:13.071 : en:End Credits
Релиз от:
У вас нет необходимых прав для просмотра вложений в этом сообщении.

Ответить Вложения 1

Кто сейчас на конференции

Сейчас этот форум просматривают: нет зарегистрированных пользователей и 0 гостей