Вверх / Up (2009) UHD BDRemux 2160p | 4K | Лицензия

Раздача видео файлов
Ответить
K15
Администратор
Сообщения: 53
Зарегистрирован: 16 сен 2019, 20:47

Вверх / Up (2009) UHD BDRemux 2160p | 4K | Лицензия

Сообщение K15 » 27 фев 2020, 11:39

Информация о фильме
Название: Вверх
Оригинальное название: Up
Год выхода: 2009
Жанр: Мультфильм, полнометражный, драма, комедия, приключения, семейный
Режиссер: Пит Доктер, Боб Питерсон
В ролях: Эдвард Аснер, Кристофер Пламмер, Джордан Нагаи, Боб Питерсон, Делрой Линдо, Джером Рэнфт, Джон Ратценбергер, Дэвид Кэй, Эли Доктер, Джереми Лири, Микки Макгоун, Дэнни Манн, Дональд Фуллилов, Джесс Харнелл, Джош Кули

О фильме: 78-летний ворчун Карл Фредриксен считает, что жизнь обходит его стороной. Чтобы сдержать обещание, данное своей почившей жене, он решает осуществить свою мечту о великом приключении, привязав тысячи воздушных шариков к своему дому и улетев в дебри Южной Америки. Не пролетев и полмили, путешественник обнаруживает, что он ненароком прихватил с собой крайне разговорчивого и неисправимо жизнерадостного 8-летнего мальчика по имени Рассел…



Страна: США
Студия: Pixar Animation Studios, Walt Disney Pictures
Продолжительность: 01:36:38
Перевод: Дублированный | Лицензия
Качество: BDRemux 2160p
Видео: 3840x2160 at 23.976 fps, MPEG-H HEVC HDR Video, 48600 kbps avg
Аудио #01: 48 kHz, AC3, 5.1, 640 Kbps | Дублированный | RUS |
Аудио #02: 48 kHz, TrueHD, 7.1, 6830 Kbps | Оригинал | ENG |
Аудио #03: 48 kHz, AC3, 5.1, 640 Kbps | Оригинал | ENG |
Субтитры: Русские (Full), украинские (Full), английские
Релиз от:
General
Unique ID: 153125231236407254620696874764734393506 (0x7332D8C867BF5C33001CEA16E4DD6CA2)
Complete name: E:Video111Up.2009.BDREMUX.2160p.HDR.seleZen.mkv
Format: Matroska
Format version: Version 4
File size: 38.4 GiB
Duration: 1 h 36 min
Overall bit rate mode: Variable
Overall bit rate: 56.8 Mb/s
Movie name: Up 2009 from селезень
Encoded date: UTC 2020-02-26 05:55:50
Writing application: mkvmerge v40.0.0 ('Old Town Road + Pony') 64-bit
Writing library: libebml v1.3.9 + libmatroska v1.5.2

Video
ID: 1
Format: HEVC
Format/Info: High Efficiency Video Coding
Format profile: Main 10@L5.1@High
HDR format: SMPTE ST 2086, HDR10 compatible
Codec ID: V_MPEGH/ISO/HEVC
Duration: 1 h 36 min
Bit rate: 48.6 Mb/s
Width: 3 840 pixels
Height: 2 160 pixels
Display aspect ratio: 16:9
Frame rate mode: Constant
Frame rate: 23.976 (24000/1001) FPS
Color space: YUV
Chroma subsampling: 4:2:0 (Type 2)
Bit depth: 10 bits
Bits/(Pixel*Frame): 0.245
Stream size: 32.8 GiB (86%)
Writing library: ATEME Titan File 3.9.0 (4.9.0.0)
Language: English
Default: Yes
Forced: No
Color range: Limited
Color primaries: BT.2020
Transfer characteristics: PQ
Matrix coefficients: BT.2020 non-constant
Mastering display color pri: Display P3
Mastering display luminance: min: 0.0000 cd/m2, max: 1000 cd/m2

Audio #1
ID: 2
Format: AC-3
Format/Info: Audio Coding 3
Commercial name: Dolby Digital
Codec ID: A_AC3
Duration: 1 h 36 min
Bit rate mode: Constant
Bit rate: 640 kb/s
Channel(s): 6 channels
Channel layout: L R C LFE Ls Rs
Sampling rate: 48.0 kHz
Frame rate: 31.250 FPS (1536 SPF)
Compression mode: Lossy
Stream size: 442 MiB (1%)
Title: Dub [License]
Language: Russian
Service kind: Complete Main
Default: Yes
Forced: Yes

Audio #2
ID: 3
Format: MLP FBA 16-ch
Format/Info: Meridian Lossless Packing FBA with 16-channel presentation
Commercial name: Dolby TrueHD with Dolby Atmos
Codec ID: A_TRUEHD
Duration: 1 h 36 min
Bit rate mode: Variable
Bit rate: 6 830 kb/s
Maximum bit rate: 8 307 kb/s
Channel(s): 8 channels
Channel layout: L R C LFE Ls Rs Lb Rb
Sampling rate: 48.0 kHz
Frame rate: 1 200.000 FPS (40 SPF)
Compression mode: Lossless
Stream size: 4.61 GiB (12%)
Title: Original
Language: English
Default: No
Forced: No
Number of dynamic objects: 13
Bed channel count: 1 channel
Bed channel configuration: LFE

Audio #3
ID: 4
Format: AC-3
Format/Info: Audio Coding 3
Commercial name: Dolby Digital
Codec ID: A_AC3
Duration: 1 h 36 min
Bit rate mode: Constant
Bit rate: 640 kb/s
Channel(s): 6 channels
Channel layout: L R C LFE Ls Rs
Sampling rate: 48.0 kHz
Frame rate: 31.250 FPS (1536 SPF)
Compression mode: Lossy
Stream size: 442 MiB (1%)
Language: English
Service kind: Complete Main
Default: No
Forced: No

Text #1
ID: 5
Format: UTF-8
Codec ID: S_TEXT/UTF8
Codec ID/Info: UTF-8 Plain Text
Duration: 1 h 27 min
Bit rate: 74 b/s
Count of elements: 842
Stream size: 48.2 KiB (0%)
Title: Full
Language: Russian
Default: No
Forced: No

Text #2
ID: 6
Format: UTF-8
Codec ID: S_TEXT/UTF8
Codec ID/Info: UTF-8 Plain Text
Duration: 1 h 28 min
Bit rate: 71 b/s
Count of elements: 859
Stream size: 46.1 KiB (0%)
Title: Full
Language: Ukrainian
Default: No
Forced: No

Text #3
ID: 7
Format: UTF-8
Codec ID: S_TEXT/UTF8
Codec ID/Info: UTF-8 Plain Text
Duration: 1 h 27 min
Bit rate: 44 b/s
Count of elements: 845
Stream size: 28.6 KiB (0%)
Title: Full
Language: English
Default: No
Forced: No

Text #4
ID: 8
Format: UTF-8
Codec ID: S_TEXT/UTF8
Codec ID/Info: UTF-8 Plain Text
Duration: 1 h 34 min
Bit rate: 50 b/s
Count of elements: 1197
Stream size: 35.0 KiB (0%)
Title: SDH
Language: English
Default: No
Forced: No

Menu
00:00:00.000: en:Глава 01
00:02:40.077: en:Глава 02
00:07:14.851: en:Глава 03
00:11:38.156: en:Глава 04
00:13:34.147: en:Глава 05
00:15:22.755: en:Глава 06
00:17:36.555: en:Глава 07
00:20:25.808: en:Глава 08
00:24:31.970: en:Глава 09
00:26:24.458: en:Глава 10
00:28:03.223: en:Глава 11
00:29:40.904: en:Глава 12
00:33:20.832: en:Глава 13
00:34:21.059: en:Глава 14
00:35:15.155: en:Глава 15
00:39:50.179: en:Глава 16
00:42:35.511: en:Глава 17
00:44:41.846: en:Глава 18
00:46:17.900: en:Глава 19
00:49:19.790: en:Глава 20
00:52:21.597: en:Глава 21
00:55:24.655: en:Глава 22
01:00:34.214: en:Глава 23
01:04:19.856: en:Глава 24
01:06:14.971: en:Глава 25
01:08:58.676: en:Глава 26
01:10:21.384: en:Глава 27
01:13:35.995: en:Глава 28
01:15:25.020: en:Глава 29
01:17:53.419: en:Глава 30
01:19:46.532: en:Глава 31
01:21:54.534: en:Глава 32
01:23:23.957: en:Глава 33
01:26:03.325: en:Глава 34
01:29:03.088: en:Глава 35

Ответить