Псы под прикрытием / Show Dogs [Комедия, приключения, семейный, 2018] BDRip, Dub [iTunes]

Раздел для видео роликов, фильмов, мультфильмов... в общем для любого видео / Section for videos, movies, cartoons... in General for any video
Торрент Сидеров Личеров Размер
torrent_648340.torrent
0 0 1.45 ГБ

Автор темы
salma3
Супермодератор
Сообщения: 92
Зарегистрирован: 20 авг 2018, 11:57
Репутация: 0
Russia

Псы под прикрытием / Show Dogs [Комедия, приключения, семейный, 2018] BDRip, Dub [iTunes]

#1

Сообщение salma3 » 20 авг 2018, 12:39

Год выхода: 2018
Жанр: Комедия, приключения, семейный
Режиссер: Раджа Госнелл

В ролях: Уилл Арнетт, Лудакрис, Наташа Лионн, Стэнли Туччи, Джордин Спаркс, Габриэль Иглесиас, Шакил О’Нил, Алан Камминг, Омар Чапарро, Андерс Холм и др.

О фильме: Серьезному детективу предстоит работа с необычным напарником — говорящим псом Максом, который не замолкает ни на минуту и фанатеет от рэпа. Вместе они отправятся в Лас-Вегас, где на элитной выставке собак проворачиваются аферы по перепродаже редких животных. И сядут мошенникам на хвост.




Страна: Великобритания, США
Продолжительность: 01:30:45
Перевод: Дублированный | iTunes

Файл
Формат: AVI
Качество: BDRip
Видео: Xvid, 720x384, ~1895 kbps, 23,976 fps
Звук: русский, AC3, 5.1, 48 kHz, 384 kbps | iTunes


РазвернутьMI
General
Полное имя : F:TorrentShowDogsBDRip.avi
Формат : AVI
Формат/Информация : Audio Video Interleave
Размер файла : 1.45 GiB
Продолжительность : 1 h 30 min
Общий поток : 2 288 kb/s
Библиотека кодирования : VirtualDub build 35491/release

Video
Идентификатор : 0
Формат : MPEG-4 Visual
Профиль формата : Advanced Simple@L5
Настройки формата : BVOP2 / Custom Matrix
Параметр BVOP формата : 2
Параметр QPel формата : No
Параметр GMC формата : No warppoints
Параметр матрицы формата : Custom
Идентификатор кодека : XVID
Идентификатор кодека/Подсказка : XviD
Продолжительность : 1 h 30 min
Битрейт : 1 895 kb/s
Ширина : 720 pixels
Высота : 384 pixels
Соотношение сторон : 1.85:1
Частота кадров : 23.976 (24000/1001) FPS
Цветовое пространство : YUV
Субдискретизация насыщенности : 4:2:0
Битовая глубина : 8 bits
Тип развёртки : Progressive
Метод сжатия : Lossy
Бит/(Пиксели*Кадры) : 0.286
Размер потока : 1.20 GiB (83%)
Библиотека кодирования : XviD 67

Audio
Идентификатор : 1
Формат : AC-3
Формат/Информация : Audio Coding 3
Идентификатор кодека : 2000
Продолжительность : 1 h 30 min
Вид битрейта : Constant
Битрейт : 384 kb/s
Каналы : 6 channels
Расположение каналов : Front: L C R, Side: L R, LFE
Частота : 48.0 kHz
Частота кадров : 31.250 FPS (1536 SPF)
Битовая глубина : 16 bits
Метод сжатия : Lossy
Размер потока : 249 MiB (17%)
Выравнивание : Aligned on interleaves
Продолжительность промежутка : 42 ms (1.00 video frame)
Время предзагрузки промежутка : 512 ms
РазвернутьСкриншоты
У вас нет необходимых прав для просмотра вложений в этом сообщении.

Ответить Вложения 1

Кто сейчас на конференции

Сейчас этот форум просматривают: нет зарегистрированных пользователей и 0 гостей