Книжный клуб / Book Club [Комедия, мелодрама, 2018] BDRip 720p, Dub [iTunes]

Торрент раздачи, не нашедшие своего раздела / Torrent distribution, not found its section
Ответить
Торрент Сидеров Личеров Размер
torrent_648480.torrent
0 0 3.64 ГБ

Автор темы
salma3
Супермодератор
Сообщения: 92
Зарегистрирован: 20 авг 2018, 11:57
Репутация: 0
Russia

Книжный клуб / Book Club [Комедия, мелодрама, 2018] BDRip 720p, Dub [iTunes]

#1

Сообщение salma3 » 20 авг 2018, 15:44

Год выхода: 2018
Жанр: Комедия, мелодрама
Режиссер: Билл Холдермэн

В ролях: Дайан Китон, Джейн Фонда, Кэндис Берген, Мэри Стинберген, Энди Гарсиа, Крэйг Т. Нельсон, Дон Джонсон, Эд Бегли мл., Ричард Дрейфусс, Уоллес Шоун и др.

О фильме: Однажды в руки утонченных интеллектуалок попадает эротический бестселлер «Пятьдесят оттенков серого». С этого момента жизнь калифорнийских леди уже никогда не будет прежней.



Страна: США
Продолжительность: 01:43:45
Перевод: Дублированный | iTunes

Файл
Качество: BDRip 720p
Видео: MPEG-4 AVC, 1280x536, 4000 kbps, 23,976 fps
Звук#1: русский, AC3, 5.1, 48 kHz, 384 kbps | iTunes
Звук#2: английский, AC3, 5.1, 48 kHz, 640 kbps | оригинал
Субтитры: английские


MI
General
Уникальный идентификатор : 191965784241332774128862895353688154499 (0x906B43E53FCFFDB99BF3515C98AAE183)
Полное имя : F:TorrentBookClubBDRip720p.mkv
Формат : Matroska
Версия формата : Version 4 / Version 2
Размер файла : 3.64 GiB
Продолжительность : 1 h 43 min
Общий поток : 5 025 kb/s
Дата кодирования : UTC 2018-08-20 08:57:32
Программа кодирования : mkvmerge v9.5.0 ('Quiet Fire') 64bit
Библиотека кодирования : libebml v1.3.4 + libmatroska v1.4.5

Video
Идентификатор : 1
Формат : AVC
Формат/Информация : Advanced Video Codec
Профиль формата : High@L4.1
Настройки формата : CABAC / 12 Ref Frames
Параметр CABAC формата : Yes
Параметр RefFrames формата : 12 frames
Идентификатор кодека : V_MPEG4/ISO/AVC
Продолжительность : 1 h 43 min
Битрейт : 4 000 kb/s
Ширина : 1 280 pixels
Высота : 536 pixels
Соотношение сторон : 2.40:1
Режим частоты кадров : Constant
Частота кадров : 23.976 (24000/1001) FPS
Цветовое пространство : YUV
Субдискретизация насыщенности : 4:2:0
Битовая глубина : 8 bits
Тип развёртки : Progressive
Бит/(Пиксели*Кадры) : 0.243
Размер потока : 2.90 GiB (80%)
Библиотека кодирования : x264 core 155 r2901M 7d0ff22
Настройки программы : cabac=1 / ref=12 / deblock=1:-3:-3 / analyse=0x3:0x133 / me=umh / subme=11 / psy=1 / psy_rd=1.00:0.00 / mixed_ref=1 / me_range=32 / chroma_me=1 / trellis=2 / 8x8dct=1 / cqm=0 / deadzone=21,11 / fast_pskip=0 / chroma_qp_offset=-2 / threads=5 / lookahead_threads=1 / sliced_threads=0 / nr=0 / decimate=0 / interlaced=0 / bluray_compat=0 / constrained_intra=0 / bframes=10 / b_pyramid=2 / b_adapt=2 / b_bias=0 / direct=3 / weightb=1 / open_gop=0 / weightp=2 / keyint=240 / keyint_min=24 / scenecut=40 / intra_refresh=0 / rc_lookahead=120 / rc=2pass / mbtree=0 / bitrate=4000 / ratetol=1.0 / qcomp=0.70 / qpmin=0 / qpmax=69 / qpstep=4 / cplxblur=20.0 / qblur=0.5 / vbv_maxrate=62500 / vbv_bufsize=78125 / nal_hrd=none / filler=0 / ip_ratio=1.40 / pb_ratio=1.30 / aq=3:0.80
Язык : English
Default : Yes
Forced : No

Audio #1
Идентификатор : 2
Формат : AC-3
Формат/Информация : Audio Coding 3
Идентификатор кодека : A_AC3
Продолжительность : 1 h 43 min
Вид битрейта : Constant
Битрейт : 384 kb/s
Каналы : 6 channels
Расположение каналов : Front: L C R, Side: L R, LFE
Частота : 48.0 kHz
Частота кадров : 31.250 FPS (1536 SPF)
Битовая глубина : 16 bits
Метод сжатия : Lossy
Размер потока : 285 MiB (8%)
Язык : Russian
Default : Yes
Forced : No

Audio #2
Идентификатор : 3
Формат : AC-3
Формат/Информация : Audio Coding 3
Идентификатор кодека : A_AC3
Продолжительность : 1 h 43 min
Вид битрейта : Constant
Битрейт : 640 kb/s
Каналы : 6 channels
Расположение каналов : Front: L C R, Side: L R, LFE
Частота : 48.0 kHz
Частота кадров : 31.250 FPS (1536 SPF)
Битовая глубина : 16 bits
Метод сжатия : Lossy
Размер потока : 475 MiB (13%)
Язык : English
Default : No
Forced : No

Text #1
Идентификатор : 4
Формат : UTF-8
Идентификатор кодека : S_TEXT/UTF8
Идентификатор кодека/Информация : UTF-8 Plain Text
Продолжительность : 1 h 36 min
Битрейт : 81 b/s
ElementCount : 1766
Размер потока : 57.8 KiB (0%)
Язык : English
Default : No
Forced : No

Text #2
Идентификатор : 5
Формат : UTF-8
Идентификатор кодека : S_TEXT/UTF8
Идентификатор кодека/Информация : UTF-8 Plain Text
Продолжительность : 1 h 36 min
Битрейт : 88 b/s
ElementCount : 1974
Размер потока : 62.3 KiB (0%)
Заголовок : SDH
Язык : English
Default : No
Forced : No

Menu
00:00:00.000 : :Chapter 01
00:09:32.488 : :Chapter 02
00:17:58.494 : :Chapter 03
00:28:37.173 : :Chapter 04
00:37:45.429 : :Chapter 05
00:46:38.629 : :Chapter 06
00:53:34.461 : :Chapter 07
01:02:36.586 : :Chapter 08
01:13:06.757 : :Chapter 09
01:21:36.182 : :Chapter 10
01:31:12.633 : :Chapter 11
01:37:14.662 : :Chapter 12
01:43:44.384 : :Chapter 13
Скриншоты

У вас нет необходимых прав для просмотра вложений в этом сообщении.

Ответить

Кто сейчас на конференции

Сейчас этот форум просматривают: нет зарегистрированных пользователей и 1 гость