8 подруг Оушена / Ocean's Eight [Боевик, триллер, комедия, 2018] WEB-DLRip-AVC, Dub [iTunes]

Торрент раздачи, не нашедшие своего раздела / Torrent distribution, not found its section
Ответить
Торрент Сидеров Личеров Размер
torrent_648810.torrent
1046 174 1.86 ГБ

Автор темы
salma3
Супермодератор
Сообщения: 92
Зарегистрирован: 20 авг 2018, 11:57
Репутация: 0
Russia

8 подруг Оушена / Ocean's Eight [Боевик, триллер, комедия, 2018] WEB-DLRip-AVC, Dub [iTunes]

#1

Сообщение salma3 » 22 авг 2018, 09:43

Год выпуска: 2018
Жанр: Боевик, триллер, комедия
Режиссер: Гэри Росс

В ролях: Сандра Буллок, Кейт Бланшетт, Гриффин Данн, Дирдри Гудвин, Энн Хэтэуэй, Минди Кейлинг, Рианна, Даниэлла Раббани, Брайан Дж. Картер, Сара Полсон, Аквафина

О фильме:
Пять лет, восемь месяцев, 12 дней… и далее. Именно столько Дебби Оушен разрабатывала план величайшего ограбления своей жизни. Она точно знает, что для него потребуется, — команда лучших в своем деле, начиная с ее давней сообщницы Лу Миллер. Вместе они собирают команду уникальных специалистов. Их цель — неотразимые 150 миллионов долларов в бриллиантах — в бриллиантах на шее всемирно известной актрисы Дафны Клюгер, к которой будет приковано всеобщее внимание на главном событии года — бале в Метрополитен-музее. Сам план бесподобен, но и реализация должна быть безупречна, если они хотят войти и выйти с драгоценностями в руках. Прямо у всех на виду.



Страна: США
Продолжительность: 01:50:07
Перевод: Дублированный | iTunes

Файл
Качество: WEB-DLRip-AVC
Видео: 1024x428 (2.40:1), 23,976 fps, x264 ~1 459 kbps avg, 0.139 bit/pixel
Аудио1: 48 kHz, AC3 Dolby Digital, 3/2 (L,C,R,l,r) + LFE ch, ~384.00 kbps avg | RUS (iTunes)
Аудио2: 48 kHz, AC3 Dolby Digital, 2 (L,R) ch, ~192.00 kbps avg | UKR (iTunes)
Аудио3: 48 kHz, AC3 Dolby Digital, 3/2 (L,C,R,l,r) + LFE ch, ~384.00 kbps avg | ENG
MediaInfo
Общее
Уникальный идентификатор : 336283104949996777258462668218184826010 (0xFCFDC5294D5C6D5F95060770DC2CFC9A)
Полное имя : F:OlLanDGroupOceans.8.2018.WEB-DLRip(AVC).OlLanDGroup.mkv
Формат : Matroska
Версия формата : Version 4 / Version 2
Размер файла : 1,86 Гбайт
Продолжительность : 1 ч. 50 м.
Общий поток : 2421 Кбит/сек
Название фильма : Oceans.8.2018 #TorpedoUK#
Дата кодирования : UTC 2018-08-22 00:01:56
Программа кодирования : mkvmerge v25.0.0 ('Prog Noir') 64-bit
Библиотека кодирования : libebml v1.3.6 + libmatroska v1.4.9

Видео
Идентификатор : 1
Формат : AVC
Формат/Информация : Advanced Video Codec
Профиль формата : High@L4.1
Параметр CABAC формата : Да
Параметр ReFrames формата : 10 кадров
Идентификатор кодека : V_MPEG4/ISO/AVC
Продолжительность : 1 ч. 50 м.
Битрейт : 1459 Кбит/сек
Ширина : 1024 пикселя
Высота : 428 пикселей
Соотношение сторон : 2,40:1
Режим частоты кадров : Постоянный
Частота кадров : 23,976 (24000/1001) кадра/сек
Цветовое пространство : YUV
Субдискретизация насыщенности : 4:2:0
Битовая глубина : 8 бит
Тип развёртки : Прогрессивная
Бит/(Пиксели*Кадры) : 0.139
Размер потока : 1,12 Гбайт (60%)
Библиотека кодирования : x264 core 146 r2538 121396c
Настройки программы : cabac=1 / ref=10 / deblock=1:-3:-3 / analyse=0x3:0x113 / me=umh / subme=11 / psy=1 / psy_rd=0.97:0.05 / mixed_ref=1 / me_range=48 / chroma_me=1 / trellis=2 / 8x8dct=1 / cqm=0 / deadzone=21,11 / fast_pskip=1 / chroma_qp_offset=-3 / threads=6 / lookahead_threads=1 / sliced_threads=0 / nr=0 / decimate=1 / interlaced=0 / bluray_compat=0 / constrained_intra=0 / bframes=10 / b_pyramid=2 / b_adapt=2 / b_bias=0 / direct=3 / weightb=1 / open_gop=0 / weightp=2 / keyint=240 / keyint_min=23 / scenecut=40 / intra_refresh=0 / rc_lookahead=40 / rc=2pass / mbtree=1 / bitrate=1459 / ratetol=1.0 / qcomp=0.60 / qpmin=0 / qpmax=69 / qpstep=4 / cplxblur=20.0 / qblur=0.5 / vbv_maxrate=50000 / vbv_bufsize=62500 / nal_hrd=none / filler=0 / ip_ratio=1.40 / aq=1:1.00
Язык : English
Default : Да
Forced : Нет

Аудио #1
Идентификатор : 2
Формат : AC-3
Формат/Информация : Audio Coding 3
Расширение режима : CM (complete main)
Параметр Endianness формата : Big
Идентификатор кодека : A_AC3
Продолжительность : 1 ч. 50 м.
Вид битрейта : Постоянный
Битрейт : 384 Кбит/сек
Каналы : 6 каналов
Расположение каналов : Front: L C R, Side: L R, LFE
Частота : 48,0 КГц
Частота кадров : 31,250 кадров/сек (1536 spf)
Битовая глубина : 16 бит
Метод сжатия : С потерями
Размер потока : 302 Мбайт (16%)
Заголовок : [DUB] DD 5.1 @ 384 kbps (iTunes)
Язык : Russian
Default : Да
Forced : Нет

Аудио #2
Идентификатор : 3
Формат : AC-3
Формат/Информация : Audio Coding 3
Расширение режима : CM (complete main)
Параметр Endianness формата : Big
Идентификатор кодека : A_AC3
Продолжительность : 1 ч. 50 м.
Вид битрейта : Постоянный
Битрейт : 192 Кбит/сек
Каналы : 2 канала
Расположение каналов : Front: L R
Частота : 48,0 КГц
Частота кадров : 31,250 кадров/сек (1536 spf)
Битовая глубина : 16 бит
Метод сжатия : С потерями
Размер потока : 151 Мбайт (8%)
Заголовок : [DUB] AC3 2.0 @ 192 kbps (iTunes)
Язык : Ukrainian
Default : Нет
Forced : Нет

Аудио #3
Идентификатор : 4
Формат : AC-3
Формат/Информация : Audio Coding 3
Расширение режима : CM (complete main)
Параметр Endianness формата : Big
Идентификатор кодека : A_AC3
Продолжительность : 1 ч. 50 м.
Вид битрейта : Постоянный
Битрейт : 384 Кбит/сек
Каналы : 6 каналов
Расположение каналов : Front: L C R, Side: L R, LFE
Частота : 48,0 КГц
Частота кадров : 31,250 кадров/сек (1536 spf)
Битовая глубина : 16 бит
Метод сжатия : С потерями
Размер потока : 302 Мбайт (16%)
Заголовок : [ORIGINAL] DD 5.1 @ 384 kbps (iTunes)
Язык : English
Default : Нет
Forced : Нет

Текст #1
Идентификатор : 5
Формат : UTF-8
Идентификатор кодека : S_TEXT/UTF8
Идентификатор кодека/Информация : UTF-8 Plain Text
Продолжительность : 1 ч. 43 м.
Битрейт : 7 бит/сек
Count of elements : 110
Размер потока : 5,79 Кбайт (0%)
Заголовок : Forced
Язык : Russian
Default : Да
Forced : Нет

Текст #2
Идентификатор : 6
Формат : UTF-8
Идентификатор кодека : S_TEXT/UTF8
Идентификатор кодека/Информация : UTF-8 Plain Text
Продолжительность : 1 ч. 49 м.
Битрейт : 107 бит/сек
Count of elements : 1381
Размер потока : 86,3 Кбайт (0%)
Заголовок : Full-length
Язык : Russian
Default : Нет
Forced : Нет

Текст #3
Идентификатор : 7
Формат : UTF-8
Идентификатор кодека : S_TEXT/UTF8
Идентификатор кодека/Информация : UTF-8 Plain Text
Продолжительность : 1 ч. 47 м.
Битрейт : 7 бит/сек
Count of elements : 114
Размер потока : 5,64 Кбайт (0%)
Заголовок : Forced
Язык : Ukrainian
Default : Нет
Forced : Нет

Меню
00:00:00.000 : en:1
00:11:17.000 : en:2
00:20:05.000 : en:3
00:31:36.000 : en:4
00:41:28.000 : en:5
00:49:17.000 : en:6
00:56:21.000 : en:7
01:05:48.000 : en:8
01:16:30.000 : en:9
01:27:00.000 : en:10
01:35:41.000 : en:11
01:44:07.000 : en:12
Скриншоты


Релиз от: Rip by:
У вас нет необходимых прав для просмотра вложений в этом сообщении.

Ответить

Кто сейчас на конференции

Сейчас этот форум просматривают: нет зарегистрированных пользователей и 2 гостя