Хеллбой: Герой из пекла / Hellboy [Фантастика, фэнтези, боевик, 2004] HDRip-AVC, Dub [Режиссерская версия]

Раздел для видео роликов, фильмов, мультфильмов... в общем для любого видео / Section for videos, movies, cartoons... in General for any video
Торрент Сидеров Личеров Размер
torrent_648914.torrent
0 0 2.7 ГБ

Автор темы
salma3
Супермодератор
Сообщения: 92
Зарегистрирован: 20 авг 2018, 11:57
Репутация: 0
Russia

Хеллбой: Герой из пекла / Hellboy [Фантастика, фэнтези, боевик, 2004] HDRip-AVC, Dub [Режиссерская версия]

#1

Сообщение salma3 » 22 авг 2018, 19:33

Год выхода: 2004
Жанр: Фантастика, фэнтези, боевик
Режиссер: Гильермо Дель Торо

В ролях: Рон Перлман, Джон Хёрт, Селма Блэр, Руперт Эванс, Карел Роден, Джеффри Тэмбор, Даг Джонс, Брайан Стил, Ладислав Беран, Бидди Ходсон, Кори Джонсон, Кевин Трэйнор, Брайан Каспе, Джеймс Бэбсон, Стивен Фишер, Гарт Купер, Энгус МакИннес, Марк Тейлор

О фильме:
Вторая мировая война. Нацисты терпят одно сокрушительное поражение за другим. В результате исследования оккультных ритуалов в суперсекретной лаборатории учёным, работающим на фашистский режим, удаётся поднять из небытия Демона Ада, который должен помочь переломить ход войны. Но в научную лабораторию тайно проникает отряд союзников и поворачивает это мистическое и грозное оружие против нацистов. Однако никто из участников эксперимента и не предполагает, что врата потустороннего мира после открытия окажутся неподвластны людям, и им придется столкнуться с существами ещё более опасными и непредсказуемыми, чем Демон Ада…



Страна: США
Продолжительность: 02:12:28
Перевод: Дублированный (со вставками многоголосого перевода)

Файл
Кодек: x.264
Качество: HDRip-AVC | исх. BDRip 1080p
Видео: h264 / 2530 kbps / 1024x552 / 23.976 fps
Звук: 48 kHz / 384 kbps

Релиз от: Alukard14
Развернутьlog
avs [info]: 1024x552p 1:1 @ 2500000/104271 fps (cfr)
x264 [info]: using SAR=1/1
x264 [info]: using cpu capabilities: MMX2 SSE2Fast SSSE3 SSE4.2 AVX XOP FMA4 FMA3 LZCNT BMI1
x264 [info]: profile High, level 4.1
x264 [info]: frame I:3275 Avg QP:18.31 size: 67655
x264 [info]: frame P:35904 Avg QP:21.06 size: 27461
x264 [info]: frame B:151404 Avg QP:24.14 size: 8624
x264 [info]: consecutive B-frames: 6.6% 0.6% 0.9% 1.1% 1.1% 1.4% 88.3%
x264 [info]: mb I I16..4: 11.8% 71.5% 16.7%
x264 [info]: mb P I16..4: 2.5% 12.3% 1.6% P16..4: 32.3% 35.3% 10.4% 0.0% 0.0% skip: 5.5%
x264 [info]: mb B I16..4: 0.1% 1.7% 0.2% B16..8: 36.6% 16.9% 2.7% direct: 4.1% skip:37.5% L0:44.8% L1:46.4% BI: 8.8%
x264 [info]: 8x8 transform intra:76.2% inter:65.4%
x264 [info]: direct mvs spatial:97.9% temporal:2.1%
x264 [info]: coded y,uvDC,uvAC intra: 80.2% 82.3% 57.2% inter: 21.8% 19.8% 6.7%
x264 [info]: i16 v,h,dc,p: 55% 11% 7% 27%
x264 [info]: i8 v,h,dc,ddl,ddr,vr,hd,vl,hu: 10% 7% 8% 10% 14% 13% 14% 11% 13%
x264 [info]: i4 v,h,dc,ddl,ddr,vr,hd,vl,hu: 11% 7% 7% 9% 14% 13% 14% 11% 14%
x264 [info]: i8c dc,h,v,p: 41% 23% 18% 19%
x264 [info]: Weighted P-Frames: Y:5.4% UV:2.9%
x264 [info]: ref P L0: 46.8% 8.3% 20.5% 6.8% 5.5% 3.4% 3.1% 1.5% 1.5% 1.1% 1.1% 0.4% 0.0%
x264 [info]: ref B L0: 78.5% 10.8% 4.4% 2.2% 1.5% 1.0% 0.7% 0.5% 0.2% 0.1%
x264 [info]: ref B L1: 92.3% 7.7%
x264 [info]: kb/s:2529.45
РазвернутьMediaInfo
Общее
Уникальный идентификатор : 213222644464125419417651217054668497546 (0xA0693005359BB3248ECBE6A625F5228A)
Полное имя : E:TestRipHellboy.by.Alukard14.mkv
Формат : Matroska
Версия формата : Version 2
Размер файла : 2,70 Гбайт
Продолжительность : 2 ч. 12 м.
Общий поток : 2915 Кбит/сек
Дата кодирования : UTC 2018-08-22 13:20:16
Программа кодирования : mkvmerge v6.9.1 ('Blue Panther') 32bit built on Apr 18 2014 18:15:44
Библиотека кодирования : libebml v1.3.0 + libmatroska v1.4.1

Видео
Идентификатор : 1
Формат : AVC
Формат/Информация : Advanced Video Codec
Профиль формата : High@L4.1
Настройки формата : CABAC / 11 Ref Frames
Параметр CABAC формата : Да
Параметр RefFrames формата : 11 кадров
Идентификатор кодека : V_MPEG4/ISO/AVC
Продолжительность : 2 ч. 12 м.
Битрейт : 2530 Кбит/сек
Ширина : 1024 пикселя
Высота : 552 пикселя
Соотношение сторон : 1,85:1
Режим частоты кадров : Постоянный
Частота кадров : 23,976 кадра/сек
Цветовое пространство : YUV
Субдискретизация насыщенности : 4:2:0
Битовая глубина : 8 бит
Тип развёртки : Прогрессивная
Бит/(Пиксели*Кадры) : 0.187
Размер потока : 2,29 Гбайт (85%)
Библиотека кодирования : x264 core 148 r2638 7599210
Настройки программы : cabac=1 / ref=11 / deblock=1:-3:-3 / analyse=0x3:0x113 / me=umh / subme=11 / psy=1 / psy_rd=1.00:0.15 / mixed_ref=1 / me_range=48 / chroma_me=1 / trellis=2 / 8x8dct=1 / cqm=0 / deadzone=21,11 / fast_pskip=0 / chroma_qp_offset=-3 / threads=9 / lookahead_threads=1 / sliced_threads=0 / nr=0 / decimate=0 / interlaced=0 / bluray_compat=0 / constrained_intra=0 / bframes=6 / b_pyramid=2 / b_adapt=0 / b_bias=0 / direct=3 / weightb=1 / open_gop=0 / weightp=2 / keyint=240 / keyint_min=24 / scenecut=40 / intra_refresh=0 / rc_lookahead=40 / rc=2pass / mbtree=1 / bitrate=2530 / ratetol=1.0 / qcomp=0.60 / qpmin=0 / qpmax=69 / qpstep=2 / cplxblur=20.0 / qblur=0.5 / vbv_maxrate=14000 / vbv_bufsize=14000 / nal_hrd=none / filler=0 / ip_ratio=1.40 / aq=1:1.00
Default : Да
Forced : Нет

Аудио
Идентификатор : 2
Формат : AC-3
Формат/Информация : Audio Coding 3
Идентификатор кодека : A_AC3
Продолжительность : 2 ч. 12 м.
Вид битрейта : Постоянный
Битрейт : 384 Кбит/сек
Каналы : 6 каналов
Расположение каналов : Front: L C R, Side: L R, LFE
Частота : 48,0 КГц
Частота кадров : 31,250 кадров/сек (1536 SPF)
Битовая глубина : 16 бит
Метод сжатия : С потерями
Размер потока : 364 Мбайт (13%)
Default : Да
Forced : Нет
РазвернутьСкриншоты
У вас нет необходимых прав для просмотра вложений в этом сообщении.

Ответить Вложения 1

Кто сейчас на конференции

Сейчас этот форум просматривают: нет зарегистрированных пользователей и 0 гостей