Зверь / Beast [Триллер, 2017] WEBRip, Dvo

Торрент раздачи, не нашедшие своего раздела / Torrent distribution, not found its section
Ответить
Торрент Сидеров Личеров Размер
torrent_648937.torrent
3970 767 1.27 ГБ

Автор темы
salma3
Супермодератор
Сообщения: 92
Зарегистрирован: 20 авг 2018, 11:57
Репутация: 0
Russia

Зверь / Beast [Триллер, 2017] WEBRip, Dvo

#1

Сообщение salma3 » 22 авг 2018, 19:34

Год выхода: 2017
Жанр: Триллер
Режиссер: Майкл Пирс

В ролях: Джеральдин Джеймс, Джесси Бакли, Джонни Флинн, Хэтти Готобед, Чарли Палмер Ротуэлл, Шеннон Тарбет, Тристан Гравель, Эмили Тааффе, Тим Вудворд, Олуэн Фуэр и другие

О фильме:
У Молл день рождения. Ей исполняется 27 лет, но праздник не делает её счастливой. Она живет с родителями на небольшом острове и буквально задыхается от непонимания и гнёта семейного круга. Молл встречает свою первую любовь в неспокойное время - по острову рыщет серийный убийца. Возникший из ниоткуда Паскаль становится для Молл воплощением свободы. С ним она впервые чувствует себя живой и избавляется от всех невидимых оков. Но счастье Молл не дает покоя её семье и жителям острова. Они подозревают Паскаля в причастности к этим зверским происшествиям. Молл приходится выбирать: быть вместе с Паскалем против всех или остаться на стороне большинства.



Страна: Великобритания, Agile Films,BFI Film Fund,British Film Institute
Продолжительность: 01:46:56
Перевод: Любительский (двухголосый закадровый) | HiWay Grope

Файл
Кодек: XviD
Качество: WEBRip
Видео: 720x302, 24 fps, ~1467 kbps, 0.28 bit/pixel
Аудио rus: AC3, 48 kHz, 6 ch, 224 Kbps

Реклама: присутствует

Семпл
MediaInfo:
General
Complete name : D:Beast.2017.WEBRip.HiWayGropeBeast.2017.WEBRip.HiWayGrope.avi
Format : AVI
Format/Info : Audio Video Interleave
File size : 1.27 GiB
Duration : 1 h 46 min
Overall bit rate : 1 701 kb/s
Writing application : VirtualDubMod 1.5.10.3 (build 2550/release)
Writing library : VirtualDubMod build 2550/release

Video
ID : 0
Format : MPEG-4 Visual
Format profile : Simple@L5
Format settings : BVOP1
Format settings, BVOP : 1
Format settings, QPel : No
Format settings, GMC : No warppoints
Format settings, Matrix : Default (MPEG)
Codec ID : XVID
Codec ID/Hint : XviD
Duration : 1 h 46 min
Bit rate : 1 467 kb/s
Width : 720 pixels
Height : 302 pixels
Display aspect ratio : 2.40:1
Frame rate : 24.000 FPS
Color space : YUV
Chroma subsampling : 4:2:0
Bit depth : 8 bits
Scan type : Progressive
Compression mode : Lossy
Bits/(Pixel*Frame) : 0.281
Stream size : 1.10 GiB (86%)
Writing library : XviD 67

Audio
ID : 1
Format : AC-3
Format/Info : Audio Coding 3
Codec ID : 2000
Duration : 1 h 46 min
Bit rate mode : Constant
Bit rate : 224 kb/s
Channel(s) : 6 channels
Channel positions : Front: L C R, Side: L R, LFE
Sampling rate : 48.0 kHz
Frame rate : 31.250 FPS (1536 SPF)
Bit depth : 16 bits
Compression mode : Lossy
Stream size : 171 MiB (13%)
Alignment : Split accross interleaves
Interleave, duration : 42 ms (1.00 video frame)
Interleave, preload duration : 500 ms
Service kind : Complete Main
Скриншоты

Релиз от: HiWay Grope
У вас нет необходимых прав для просмотра вложений в этом сообщении.

Ответить

Кто сейчас на конференции

Сейчас этот форум просматривают: нет зарегистрированных пользователей и 0 гостей