Гиены / Hyenas [ужасы, 2010] BDRip 1080p, Mvo [Лицензия]

Раздел для видео роликов, фильмов, мультфильмов... в общем для любого видео / Section for videos, movies, cartoons... in General for any video
Торрент Сидеров Личеров Размер
torrent_648931.torrent
0 0 6.81 ГБ

Автор темы
salma3
Супермодератор
Сообщения: 92
Зарегистрирован: 20 авг 2018, 11:57
Репутация: 0
Russia

Гиены / Hyenas [ужасы, 2010] BDRip 1080p, Mvo [Лицензия]

#1

Сообщение salma3 » 22 авг 2018, 19:35

Год выхода: 2010
Жанр: ужасы
Режиссер: Эрик Уэстон

В ролях: Криста Кэмпбелл, Костас Мэндилор, Рудольф Мартин, Джошуа Альба, Мешах Тэйлор, Эндрю Джеймс Аллен, Бар Пали, Кристина Мерфи, Стивен Тейлор, Майкл Нарделли

О фильме:
Кланы странных существ - полу люди полу гиены, выслеживают и зверски убивают человека за человеком. На них охотится лишь один храбрец, желающий лишь отомстить за смерть любимых.



Страна: США
Продолжительность: 01:32:44
Перевод: Профессиональное (многоголосое) [лицензия]

Файл
Кодек: x264
Качество: BDRip 1080p
Видео: MPEG4 AVC, 8617 Кбит/с, 1920x1080, 23,976 кадра/сек
Аудио 1 : Русский (AC3, 6 ch, 384 Кбит/с)
Аудио 2 : Английский (DTS, 6 ch, 1509 Кбит/с)
РазвернутьMI
Общее
Уникальный идентификатор : 313820677074202188514395188222161406912 (0xEC17A9F64D1C747FDC3F77CD0FA14BC0)
Полное имя : E:Hyenas.2011.BDRip 1080p.mkv
Формат : Matroska
Версия формата : Version 4 / Version 2
Размер файла : 6,81 Гбайт
Продолжительность : 1 ч. 32 м.
Общий поток : 10,5 Мбит/сек
Название фильма : Hyenas.2011.BDRip 1080p
Дата кодирования : UTC 2018-06-03 10:45:35
Программа кодирования : mkvmerge v22.0.0 ('At The End Of The World') 64-bit
Библиотека кодирования : libebml v1.3.5 + libmatroska v1.4.8
DURATION : 01:32:43.584000000
NUMBER_OF_FRAMES : 173862
NUMBER_OF_BYTES : 267052032
_STATISTICS_WRITING_APP : mkvmerge v22.0.0 ('At The End Of The World') 64-bit
_STATISTICS_WRITING_DATE_UTC : 2018-06-03 10:45:35
_STATISTICS_TAGS : BPS DURATION NUMBER_OF_FRAMES NUMBER_OF_BYTES

Видео
Идентификатор : 1
Формат : AVC
Формат/Информация : Advanced Video Codec
Профиль формата : High@L4.1
Параметр CABAC формата : Да
Параметр ReFrames формата : 4 кадра
Идентификатор кодека : V_MPEG4/ISO/AVC
Продолжительность : 1 ч. 32 м.
Битрейт : 8617 Кбит/сек
Ширина : 1920 пикселей
Высота : 1080 пикселей
Соотношение сторон : 16:9
Режим частоты кадров : Постоянный
Частота кадров : 23,976 кадра/сек
Цветовое пространство : YUV
Субдискретизация насыщенности : 4:2:0
Битовая глубина : 8 бит
Тип развёртки : Прогрессивная
Бит/(Пиксели*Кадры) : 0.173
Размер потока : 5,44 Гбайт (80%)
Заголовок : Hyenas.2011.BDRip 1080p
Библиотека кодирования : x264 core 114 r1924 08d04a4
Настройки программы : cabac=1 / ref=4 / deblock=1:0:0 / analyse=0x3:0x133 / me=umh / subme=7 / psy=1 / psy_rd=1.00:0.00 / mixed_ref=1 / me_range=16 / chroma_me=0 / trellis=1 / 8x8dct=1 / cqm=0 / deadzone=21,11 / fast_pskip=0 / chroma_qp_offset=-2 / threads=12 / sliced_threads=0 / nr=0 / decimate=1 / interlaced=0 / constrained_intra=0 / bframes=3 / b_pyramid=2 / b_adapt=1 / b_bias=0 / direct=1 / weightb=1 / open_gop=0 / weightp=2 / keyint=250 / keyint_min=23 / scenecut=40 / intra_refresh=0 / rc_lookahead=40 / rc=2pass / mbtree=1 / bitrate=8617 / ratetol=1.0 / qcomp=0.60 / qpmin=0 / qpmax=51 / qpstep=4 / cplxblur=20.0 / qblur=0.5 / ip_ratio=1.40 / aq=1:1.00
Default : Да
Forced : Нет

Аудио #1
Идентификатор : 2
Формат : AC-3
Формат/Информация : Audio Coding 3
Расширение режима : CM (complete main)
Параметр Endianness формата : Big
Идентификатор кодека : A_AC3
Продолжительность : 1 ч. 32 м.
Вид битрейта : Постоянный
Битрейт : 384 Кбит/сек
Каналы : 6 каналов
Расположение каналов : Front: L C R, Side: L R, LFE
Частота : 48,0 КГц
Битовая глубина : 16 бит
Метод сжатия : С потерями
Размер потока : 255 Мбайт (4%)
Заголовок : MVO [лицензия]
Язык : Russian
Default : Да
Forced : Да

Аудио #2
Идентификатор : 3
Формат : DTS
Формат/Информация : Digital Theater Systems
Режим : 16
Параметр Endianness формата : Big
Идентификатор кодека : A_DTS
Продолжительность : 1 ч. 32 м.
Вид битрейта : Постоянный
Битрейт : 1509 Кбит/сек
Каналы : 6 каналов
Расположение каналов : Front: L C R, Side: L R, LFE
Частота : 48,0 КГц
Битовая глубина : 16 бит
Метод сжатия : С потерями
Размер потока : 1001 Мбайт (14%)
Заголовок : Original (Eng)
Язык : English
Default : Нет
Forced : Нет

Меню
00:00:00.000 : en:00:00:00.000
00:07:29.991 : en:00:07:29.991
00:14:59.941 : en:00:14:59.941
00:22:30.015 : en:00:22:30.015
00:29:59.965 : en:00:29:59.965
00:35:59.949 : en:00:35:59.949
00:37:29.956 : en:00:37:29.956
00:44:59.947 : en:00:44:59.947
00:52:29.980 : en:00:52:29.980
00:59:59.971 : en:00:59:59.971
01:09:59.946 : en:01:09:59.946
01:19:59.920 : en:01:19:59.920
01:32:44.601 : en:01:32:44.601
РазвернутьСкриншоты
У вас нет необходимых прав для просмотра вложений в этом сообщении.

Ответить Вложения 1

Кто сейчас на конференции

Сейчас этот форум просматривают: нет зарегистрированных пользователей и 0 гостей