Создатель кумиров / Идолопоклонник / The Idolmaker [Драма, мелодрама, биография, 1980] BDRip 1080p, Dvo [НТВ+]

Торрент раздачи, не нашедшие своего раздела / Torrent distribution, not found its section
Ответить
Торрент Сидеров Личеров Размер
torrent_649025.torrent
0 0 8.1 ГБ

Автор темы
salma3
Супермодератор
Сообщения: 92
Зарегистрирован: 20 авг 2018, 11:57
Репутация: 0
Russia

Создатель кумиров / Идолопоклонник / The Idolmaker [Драма, мелодрама, биография, 1980] BDRip 1080p, Dvo [НТВ+]

#1

Сообщение salma3 » 23 авг 2018, 10:48

Год выхода: 1980
Жанр: Драма, мелодрама, биография
Режиссер: Тейлор Хэкфорд

В ролях: Рэй Шарки, Това Фелдшух, Питер Галлахер, Пол Лэнд, Джо Пантолиано, Морин МакКормик, Джон Эпри, Ричард Брайт, Олимпия Дукакис, Стив Пек, Леонард Гейнс, Чарльз Гуардино, Дени Террио

О фильме:
В основе сюжета — факты из жизни музыкального продюсера Боба Маркуччи, который открыл таких звезд, как Фрэнки Авалон и Фабиан. Менеджер и автор песен Винсент Вакари страстно желает открыть новую звезду рок-музыки. В местном клубе он обращает внимание на играющую там группу и предлагает одному из музыкантов, Томасо ДеЛоруссо, стать певцом. Томасо соглашается и спустя всего несколько месяцев под руководством Винсента становится звездой рок-н-ролла. После первого успеха Винсент решает продолжить карьеру продюсера и сделать новой звездой помощника официанта Гвидо. Постепенно работа полностью поглощает Винсента, что очень сильно беспокоит его подругу Бренду…



Страна: США
Продолжительность: 01:58:53
Перевод: Профессиональный двухголосый [НТВ+]

Файл
Кодек: x264
Качество: BDRip 1080p
Видео: MPEG-4 AVC, 8048 Kбит/с, 1920x1040
Звук №1: Русский | AC3, 2 ch, 192 Кбит/с | Профессиональный двухголосый | НТВ+
Звук №2: Английский | DTS, 6 ch, 1536 Кбит/с | Оригинал
Субтитры: Нет
Награды
Золотой глобус, 1981 год
Победитель (1):
Лучшая мужская роль (комедия или мюзикл) ( Рэй Шарки )
Номинации (1):
Лучший фильм (комедия или мюзикл)
Скриншоты
Инфо-файл
Формат : Matroska
Версия формата : Version 2
Размер файла : 8,10 Гбайт
Продолжительность : 1 ч. 58 м.
Общий поток : 9751 Кбит/сек
Название фильма : The.Idolmaker.1980.1080p.BluRay.zzZGVvv
Дата кодирования : UTC 2018-08-23 06:43:04
Программа кодирования : mkvmerge v5.8.0 ('No Sleep / Pillow') built on Sep 2 2012 15:37:04
Библиотека кодирования : libebml v1.2.3 + libmatroska v1.3.0
Attachements : cover.jpg

Видео
Идентификатор : 1
Формат : AVC
Формат/Информация : Advanced Video Codec
Профиль формата : High@L4.1
Параметр CABAC формата : Да
Параметр ReFrames формата : 4 кадра
Идентификатор кодека : V_MPEG4/ISO/AVC
Продолжительность : 1 ч. 58 м.
Битрейт : 8048 Кбит/сек
Ширина : 1920 пикселей
Высота : 1040 пикселей
Соотношение сторон : 1,85:1
Режим частоты кадров : Постоянный
Частота кадров : 23,976 кадра/сек
Цветовое пространство : YUV
Субдискретизация насыщенности : 4:2:0
Битовая глубина : 8 бит
Тип развёртки : Прогрессивная
Бит/(Пиксели*Кадры) : 0.168
Размер потока : 6,52 Гбайт (81%)
Заголовок : The.Idolmaker.1980.1080p.BluRay
Библиотека кодирования : x264 core 133 r2334 a3ac64b
Настройки программы : cabac=1 / ref=4 / deblock=1:-1:-1 / analyse=0x3:0x113 / me=umh / subme=7 / psy=1 / psy_rd=1.00:0.00 / mixed_ref=1 / me_range=16 / chroma_me=1 / trellis=1 / 8x8dct=1 / cqm=0 / deadzone=21,11 / fast_pskip=1 / chroma_qp_offset=-2 / threads=12 / lookahead_threads=2 / sliced_threads=0 / nr=0 / decimate=1 / interlaced=0 / bluray_compat=0 / constrained_intra=0 / bframes=3 / b_pyramid=2 / b_adapt=2 / b_bias=0 / direct=3 / weightb=1 / open_gop=0 / weightp=2 / keyint=250 / keyint_min=23 / scenecut=40 / intra_refresh=0 / rc_lookahead=40 / rc=2pass / mbtree=1 / bitrate=8048 / ratetol=1.0 / qcomp=0.60 / qpmin=0 / qpmax=69 / qpstep=4 / cplxblur=20.0 / qblur=0.5 / vbv_maxrate=50000 / vbv_bufsize=50000 / nal_hrd=none / ip_ratio=1.40 / aq=1:1.00
Язык : English
Default : Да
Forced : Нет

Аудио #1
Идентификатор : 2
Формат : AC-3
Формат/Информация : Audio Coding 3
Расширение режима : CM (complete main)
Параметр Endianness формата : Big
Идентификатор кодека : A_AC3
Продолжительность : 1 ч. 58 м.
Вид битрейта : Постоянный
Битрейт : 192 Кбит/сек
Каналы : 2 канала
Расположение каналов : Front: L R
Частота : 48,0 КГц
Метод сжатия : С потерями
Размер потока : 163 Мбайт (2%)
Заголовок : DVO (НТВ+)
Язык : Russian
Default : Да
Forced : Нет

Аудио #2
Идентификатор : 3
Формат : DTS
Формат/Информация : Digital Theater Systems
Режим : 16
Параметр Endianness формата : Big
Идентификатор кодека : A_DTS
Продолжительность : 1 ч. 58 м.
Вид битрейта : Постоянный
Битрейт : 1509 Кбит/сек
Каналы : 6 каналов
Расположение каналов : Front: L C R, Side: L R, LFE
Частота : 48,0 КГц
Битовая глубина : 24 бит
Метод сжатия : С потерями
Размер потока : 1,25 Гбайт (15%)
Язык : English
Default : Нет
Forced : Нет
У вас нет необходимых прав для просмотра вложений в этом сообщении.

Ответить

Кто сейчас на конференции

Сейчас этот форум просматривают: нет зарегистрированных пользователей и 1 гость