Покинутый / Abandon [Триллер, драма, детектив, 2002] WEB-DL 1080p, Mvo

Раздел для видео роликов, фильмов, мультфильмов... в общем для любого видео / Section for videos, movies, cartoons... in General for any video
Торрент Сидеров Личеров Размер
torrent_648980.torrent
29 6 7.66 ГБ

Автор темы
salma3
Супермодератор
Сообщения: 92
Зарегистрирован: 20 авг 2018, 11:57
Репутация: 0
Russia

Покинутый / Abandon [Триллер, драма, детектив, 2002] WEB-DL 1080p, Mvo

#1

Сообщение salma3 » 23 авг 2018, 10:50

Год выпуска: 2002
Выпущено: США, Германия, Канада, Bedford Falls Productions, Lynda Obst Productions
Жанр: Триллер, драма, детектив
Режиссер: Стивен Гейган

В ролях: Кэти Холмс, Бенджамин Брэтт, Чарли Ханнэм, Зои Дешанель, Фред Уорд, Марк Фойерстин, Мелани Лински, Филип Боско, Гэбриел Манн, Уилл МакКормак, Гэбриэл Юнион, Грег Крамер, Тони Голдуин, Рашель Лефевр, Бретт Уотсон

О фильме: Следователю Уэйду Хандлеру поручают расследовать исчезновение Эмбри, студента престижного колледжа, случившееся два года назад. Безуспешно ища улики, он знакомится с очаровательной подругой пропавшего, которая признаётся, что недавно вновь стала замечать Эмбри в студгородке. Удивленный признанием Кэтрин, Уэйд решает поближе познакомиться с ней, не в силах отделаться от чувства, что это — единственный способ раскрыть тайну загадочного исчезновения…

Продолжительность: 01:38:35
Перевод: Профессиональный многоголосый, профессиональный двухголосый, авторский
Субтитры: Русские, английские
Навигация по главам: Есть

Файл
Качество: WEB-DL 1080p
Видео: MPEG-4 AVC, 9428 Кбит/сек, 1920x816, 23,976 кадра/сек
Аудио #1: AC3, 6 ch, 448 Кбит/сек | Русский, профессиональный (многоголосый закадровый)
Аудио #2: AC3, 2 ch, 192 Кбит/сек | Русский, профессиональный (двухголосый закадровый) Парадиз, Видеосервис
Аудио #3: AC3, 2 ch, 192 Кбит/сек | Русский, авторский (одноголосый закадровый) С. Визгунов
Аудио #4: EAC3, 6 ch, 640 Кбит/сек | Английский, оригинал


РазвернутьСкриншоты
РазвернутьИнфо-файл
Общее
Уникальный идентификатор : 248312574394905777097067357293474479084 (0xBACF432370556A81A0434573D817FBEC)
Полное имя : Покинутый.2002.WEB-DL.1080p.mkv
Формат : Matroska
Версия формата : Version 2
Размер файла : 7,66 Гбайт
Продолжительность : 1 ч. 38 м.
Общий поток : 11,1 Мбит/сек
Дата кодирования : UTC 2018-08-21 19:13:31
Программа кодирования : mkvmerge v5.8.0 ('No Sleep / Pillow') built on Sep 2 2012 15:37:04
Библиотека кодирования : libebml v1.2.3 + libmatroska v1.3.0

Видео
Идентификатор : 1
Формат : AVC
Формат/Информация : Advanced Video Codec
Профиль формата : High@L4
Настройки формата : CABAC / 4 Ref Frames
Параметр CABAC формата : Да
Параметр RefFrames формата : 4 кадра
Идентификатор кодека : V_MPEG4/ISO/AVC
Продолжительность : 1 ч. 38 м.
Битрейт : 9428 Кбит/сек
Ширина : 1920 пикселей
Высота : 816 пикселей
Соотношение сторон : 2,35:1
Режим частоты кадров : Постоянный
Частота кадров : 23,976 (24000/1001) кадра/сек
Цветовое пространство : YUV
Субдискретизация насыщенности : 4:2:0
Битовая глубина : 8 бит
Тип развёртки : Прогрессивная
Бит/(Пиксели*Кадры) : 0.251
Размер потока : 6,49 Гбайт (85%)
Язык : English
По умолчанию : Да
Принудительно : Нет
Цветовой диапазон : Limited
Основные цвета : BT.709
Характеристики трансфера : BT.709
Коэффициенты матрицы : BT.709

Аудио #1
Идентификатор : 2
Формат : AC-3
Формат/Информация : Audio Coding 3
Идентификатор кодека : A_AC3
Продолжительность : 1 ч. 38 м.
Вид битрейта : Постоянный
Битрейт : 448 Кбит/сек
Каналы : 6 каналов
Расположение каналов : Front: L C R, Side: L R, LFE
Частота : 48,0 КГц
Частота кадров : 31,250 кадров/сек (1536 SPF)
Битовая глубина : 16 бит
Метод сжатия : С потерями
Размер потока : 316 Мбайт (4%)
Заголовок : MVO
Язык : Russian
По умолчанию : Да
Принудительно : Нет

Аудио #2
Идентификатор : 3
Формат : AC-3
Формат/Информация : Audio Coding 3
Идентификатор кодека : A_AC3
Продолжительность : 1 ч. 38 м.
Вид битрейта : Постоянный
Битрейт : 192 Кбит/сек
Каналы : 2 канала
Расположение каналов : Front: L R
Частота : 48,0 КГц
Частота кадров : 31,250 кадров/сек (1536 SPF)
Битовая глубина : 16 бит
Метод сжатия : С потерями
Размер потока : 135 Мбайт (2%)
Заголовок : DVO | Парадиз, Видеосервис
Язык : Russian
По умолчанию : Нет
Принудительно : Нет

Аудио #3
Идентификатор : 4
Формат : AC-3
Формат/Информация : Audio Coding 3
Идентификатор кодека : A_AC3
Продолжительность : 1 ч. 38 м.
Вид битрейта : Постоянный
Битрейт : 192 Кбит/сек
Каналы : 2 канала
Расположение каналов : Front: L R
Частота : 48,0 КГц
Частота кадров : 31,250 кадров/сек (1536 SPF)
Битовая глубина : 16 бит
Метод сжатия : С потерями
Размер потока : 135 Мбайт (2%)
Заголовок : AVO | С. Визгунов
Язык : Russian
По умолчанию : Нет
Принудительно : Нет

Аудио #4
Идентификатор : 8
Формат : E-AC-3
Формат/Информация : Enhanced Audio Coding 3
Идентификатор кодека : A_EAC3
Продолжительность : 1 ч. 38 м.
Вид битрейта : Постоянный
Битрейт : 640 Кбит/сек
Каналы : 6 каналов
Расположение каналов : Front: L C R, Side: L R, LFE
Частота : 48,0 КГц
Частота кадров : 187,500 кадров/сек (256 SPF)
Метод сжатия : С потерями
Задержка видео : 25 мс.
Размер потока : 451 Мбайт (6%)
Заголовок : Original
Язык : English
По умолчанию : Нет
Принудительно : Нет

Текст #1
Идентификатор : 5
Формат : UTF-8
Идентификатор кодека : S_TEXT/UTF8
Идентификатор кодека/Информация : UTF-8 Plain Text
Язык : Russian
По умолчанию : Нет
Принудительно : Нет

Текст #2
Идентификатор : 6
Формат : UTF-8
Идентификатор кодека : S_TEXT/UTF8
Идентификатор кодека/Информация : UTF-8 Plain Text
Язык : English
По умолчанию : Нет
Принудительно : Нет

Текст #3
Идентификатор : 7
Формат : UTF-8
Идентификатор кодека : S_TEXT/UTF8
Идентификатор кодека/Информация : UTF-8 Plain Text
Заголовок : SDH
Язык : English
По умолчанию : Нет
Принудительно : Нет

Меню
00:00:00.000 : en:01. Logos
00:00:35.029 : en:02. The Recruiters Come To College
00:02:32.563 : en:03. Handler Gets A New Case
00:08:56.163 : en:04. How Do I Look?
00:12:30.661 : en:05. The Interview
00:17:48.862 : en:06. Around The World Party
00:21:07.894 : en:07. Strobing
00:23:57.313 : en:08. Pursued By Men
00:28:59.482 : en:09. Nontraditional Space
00:32:57.937 : en:10. Maybe It Was Cat?
00:36:59.678 : en:11. Snow Dreams
00:40:39.231 : en:12. Handler Asks More Questions
00:43:44.082 : en:13. Haunted Katie
00:45:13.004 : en:14. Unquiet Americans
00:51:49.400 : en:15. "The Value Of What's Here"
00:56:20.037 : en:16. Bugs To A Bug Lamp
01:02:18.863 : en:17. The Country House
01:08:27.898 : en:18. "Are You Happy? You Seem Happy."
01:12:35.345 : en:19. Handler Takes Her Hand
01:17:36.446 : en:20. A Clue!
01:21:36.886 : en:21. Katie Gets The Prize
01:25:16.239 : en:22. Thrill-Free Thriller
01:29:20.232 : en:23. "I'm This Close To Making Partner."
01:32:56.899 : en:24. Credits
РазвернутьДополнительная информация
• Исходник видео WEB-DL Amazon.
Сборка:
У вас нет необходимых прав для просмотра вложений в этом сообщении.

Ответить Вложения 1

Кто сейчас на конференции

Сейчас этот форум просматривают: нет зарегистрированных пользователей и 0 гостей