Кикбоксер возвращается / Kickboxer: Retaliation (Димитри Логотетис / Dimitri Logothetis) [2018, США, боевик, драма, WEBR

Торрент раздачи, не нашедшие своего раздела / Torrent distribution, not found its section
Ответить
Торрент Сидеров Личеров Размер
Кикбоксер возвращается Kickboxer Retaliation [5600598].torrent
2 1 1.46 ГБ
Аватара пользователя

Автор темы
Evangelion
Супермодератор
Сообщения: 27
Зарегистрирован: 10 июл 2018, 23:15
Репутация: 0
Откуда: Горловка
Поблагодарили: 1 раз
Пол:
Ukraine

Кикбоксер возвращается / Kickboxer: Retaliation (Димитри Логотетис / Dimitri Logothetis) [2018, США, боевик, драма, WEBR

#1

Сообщение Evangelion » 23 авг 2018, 19:45

Кикбоксер возвращается / Kickboxer: Retaliation

Страна: США
Жанр: боевик, драма
Год выпуска: 2018
Продолжительность: 01:45:41

Перевод: Профессиональный (многоголосый закадровый) | Прайд Продакшн
Субтитры: нет
Оригинальная аудиодорожка: нет

Режиссер: Димитри Логотетис / Dimitri Logothetis

В ролях: Ален Мусси, Кристофер Ламберт, Жан-Клод Ван Дамм, Майк Тайсон, Сара Малакул Лэйн, Хафтор Бьёрнсон, Сэм Медина, Steven Swadling, Miles Strommen, Джессика Янн

Описание: Юному бойцу необходимо одолеть нового «Халка» из Скандинавии. Под руководством тренера он укрепит свой дух, а спарринги прокачают тело.

Качество видео: WEBRip
Формат видео: AVI

Видео: 720x400 (1.80:1), 25 fps, XviD build 73 ~1770 kbps avg, 0.25 bit/pixel
Аудио: 48 kHz, AC3 Dolby Digital, 2/0 (L,R) ch, ~192 kbps


MediaInfo

Код: Выделить всё

Формат                                   : AVI
Формат/Информация                        : Audio Video Interleave
Размер файла                             : 1,46 Гбайт
Продолжительность                        : 1 ч. 45 м.
Общий поток                              : 1972 Кбит/сек
Программа кодирования                    : VirtualDubMod 1.5.10.3 | www.virtualdub-fr.org || (build 2550/release)
Библиотека кодирования                   : VirtualDubMod build 2550/release

Видео
Идентификатор                            : 0
Формат                                   : MPEG-4 Visual
Профиль формата                          : Advanced Simple@L5
Настройки формата                        : BVOP1 / Custom Matrix
Параметр BVOP формата                    : 1
Параметр QPel формата                    : Нет
Параметр GMC формата                     : Без точки перехода
Параметр матрицы формата                 : Выборочная
Идентификатор кодека                     : XVID
Идентификатор кодека/Подсказка           : XviD
Продолжительность                        : 1 ч. 45 м.
Битрейт                                  : 1771 Кбит/сек
Ширина                                   : 720 пикселей
Высота                                   : 400 пикселей
Соотношение сторон                       : 16:9
Частота кадров                           : 25,000 кадров/сек
Цветовое пространство                    : YUV
Субдискретизация насыщенности            : 4:2:0
Битовая глубина                          : 8 бит
Тип развёртки                            : Прогрессивная
Метод сжатия                             : С потерями
Бит/(Пиксели*Кадры)                      : 0.246
Размер потока                            : 1,31 Гбайт (90%)
Библиотека кодирования                   : XviD 73

Аудио
Идентификатор                            : 1
Формат                                   : AC-3
Формат/Информация                        : Audio Coding 3
Идентификатор кодека                     : 2000
Продолжительность                        : 1 ч. 45 м.
Вид битрейта                             : Постоянный
Битрейт                                  : 192 Кбит/сек
Каналы                                   : 2 канала
Расположение каналов                     : Front: L R
Частота                                  : 48,0 КГц
Частота кадров                           : 31,250 кадров/сек (1536 SPF)
Битовая глубина                          : 16 бит
Метод сжатия                             : С потерями
Размер потока                            : 145 Мбайт (10%)
Выравнивание                             : Разделение по промежуткам
Продолжительность промежутка             : 40  мс. (1,00 видеокадр)
Время предзагрузки промежутка            : 500  мс.
ServiceKind/String                       : Complete Main
Скриншоты

У вас нет необходимых прав для просмотра вложений в этом сообщении.

Ответить

Кто сейчас на конференции

Сейчас этот форум просматривают: нет зарегистрированных пользователей и 0 гостей