Такси 5 / Taxi 5 (Франк Гастамбид / Franck Gastambide) [2018, Франция, боевик, комедия, криминал, приключения, BDRip] D

Раздел для видео роликов, фильмов, мультфильмов... в общем для любого видео / Section for videos, movies, cartoons... in General for any video
Торрент Сидеров Личеров Размер
Такси 5 Taxi 5 [2018, Франция, боевик, комедия, криминал, приклю...
4 3 1.46 ГБ
Аватара пользователя

Автор темы
Evangelion
Супермодератор
Сообщения: 30
Зарегистрирован: 10 июл 2018, 23:15
Репутация: 0
Откуда: Горловка
Поблагодарили: 1 раз
Пол:
Ukraine

Такси 5 / Taxi 5 (Франк Гастамбид / Franck Gastambide) [2018, Франция, боевик, комедия, криминал, приключения, BDRip] D

#1

Сообщение Evangelion » 23 авг 2018, 20:00

Такси 5 / Taxi 5


Страна: Франция
Жанр: боевик, комедия, криминал, приключения
Год выпуска: 2018
Продолжительность: 01:41:54

Перевод: Профессиональный (дублированный) | iTunes
Субтитры: нет
Оригинальная аудиодорожка: нет

Режиссер: Франк Гастамбид / Franck Gastambide

В ролях: Франк Гастамбид, Малик Бенталха, Бернар Фарси, Сальваторе Эспозито, Эдуард Монтут, Сабрина Уазани, Ануар Тубали, Сисси Дюпарк

Описание: Экс-комиссар Жибер, ставший самым непутевым в истории города мэром Марселя, поручает переведенному из столицы новобранцу Сильвану Маро разобраться с неуловимой «бандой итальянцев» на Ferrari. Чтобы остановить их, Маро, суперкопу и суперводителю, приходится объединиться с племянником Даниэля. Парню досталось знаменитое белое такси дяди, но не его талант.

Качество видео: BDRip | Taxi.5.2018.BDREMUX.1080p.ExKinoRay
Формат видео: AVI

Видео: 720x304 (2.37:1), 24.000 fps, XviD build 73 ~1658 kbps avg, 0.32 bit/pixel
Аудио: 48 kHz, AC3 Dolby Digital, 3/2 (L,C,R,l,r) + LFE ch, ~384 kbps
РазвернутьMediaInfo

Код: Выделить всё

Формат                                   : AVI
Формат/Информация                        : Audio Video Interleave
Размер файла                             : 1,46 Гбайт
Продолжительность                        : 1 ч. 41 м.
Общий поток                              : 2052 Кбит/сек
Программа кодирования                    : VirtualDubMod 1.5.10.3 | www.virtualdub-fr.org || (build 2550/release)
Библиотека кодирования                   : VirtualDubMod build 2550/release

Видео
Идентификатор                            : 0
Формат                                   : MPEG-4 Visual
Профиль формата                          : Advanced Simple@L5
Настройки формата                        : BVOP1 / Custom Matrix
Параметр BVOP формата                    : 1
Параметр QPel формата                    : Нет
Параметр GMC формата                     : Без точки перехода
Параметр матрицы формата                 : Выборочная
Идентификатор кодека                     : XVID
Идентификатор кодека/Подсказка           : XviD
Продолжительность                        : 1 ч. 41 м.
Битрейт                                  : 1659 Кбит/сек
Ширина                                   : 720 пикселей
Высота                                   : 304 пикселя
Соотношение сторон                       : 2,35:1
Частота кадров                           : 24,000 кадра/сек
Цветовое пространство                    : YUV
Субдискретизация насыщенности            : 4:2:0
Битовая глубина                          : 8 бит
Тип развёртки                            : Прогрессивная
Метод сжатия                             : С потерями
Бит/(Пиксели*Кадры)                      : 0.316
Размер потока                            : 1,18 Гбайт (81%)
Библиотека кодирования                   : XviD 73

Аудио
Идентификатор                            : 1
Формат                                   : AC-3
Формат/Информация                        : Audio Coding 3
Идентификатор кодека                     : 2000
Продолжительность                        : 1 ч. 41 м.
Вид битрейта                             : Постоянный
Битрейт                                  : 384 Кбит/сек
Каналы                                   : 6 каналов
Расположение каналов                     : Front: L C R, Side: L R, LFE
Частота                                  : 48,0 КГц
Частота кадров                           : 31,250 кадров/сек (1536 SPF)
Битовая глубина                          : 16 бит
Метод сжатия                             : С потерями
Размер потока                            : 280 Мбайт (19%)
Выравнивание                             : Разделение по промежуткам
Продолжительность промежутка             : 42  мс. (1,00 видеокадр)
Время предзагрузки промежутка            : 500  мс.
ServiceKind/String                       : Complete Main

РазвернутьСкриншоты

У вас нет необходимых прав для просмотра вложений в этом сообщении.

Ответить Вложения 1

Кто сейчас на конференции

Сейчас этот форум просматривают: нет зарегистрированных пользователей и 0 гостей