Закат цивилизации / Extinction [2018, США, фантастика, триллер, WEBRip-AVC]

Торрент раздачи, не нашедшие своего раздела / Torrent distribution, not found its section
Ответить
Торрент Сидеров Личеров Размер
Закат цивилизации (Extinction) [2018, США, фантастика, триллер, ...
343 94 1.44 ГБ
Аватара пользователя

Автор темы
Evangelion
Супермодератор
Сообщения: 27
Зарегистрирован: 10 июл 2018, 23:15
Репутация: 0
Откуда: Горловка
Поблагодарили: 1 раз
Пол:
Ukraine

Закат цивилизации / Extinction [2018, США, фантастика, триллер, WEBRip-AVC]

#1

Сообщение Evangelion » 23 авг 2018, 20:20

Закат цивилизации / Extinction
«We were not here first»


Страна: США
Жанр: фантастика, триллер
Год выпуска: 2018
Продолжительность: 01:34:52

Перевод: Любительский (многоголосый закадровый) MuzOboz
Субтитры: русские (форсированные, полные), английские
Оригинальная аудиодорожка: английская

Режиссер: Бен Янг / Ben Young

В ролях: Майкл Пенья, Майк Колтер, Лиззи Каплан, Израэль Бруссар, Эмма Бут, Том Райли, Лилли Аспелл, Лекс Шрэпнел, Эрика Тремблэй, Амелия Крауч

Описание: Питер видит один и тот же кошмарный сон, в котором человечество подвергается атаке неизвестных пришельцев с превосходящими силами и технологиями. Когда эти видения начинают мешать повседневной жизни, Питер поддается на уговоры жены и начальника и посещает клинику сна. А там выясняется, что подобные видения приходят не к нему одному. Однажды настаёт тот ужасный день, когда сон сбывается, и на Землю прибывают инопланетяне, сеющие смерть, разрушение и ужас.





Качество видео: WEBRip-AVC / WEBRip 1080p
Формат видео: MKV

Видео: MPEG-4 AVC, 958x400 (2.40:1), 23,976 fps, ~1495 kbps avg, 0.163 bit/pixel
Аудио 1: 48 kHz, AC3 Dolby Digital, 2/0 (L,R) ch, ~192 kbps avg
Аудио 2: 48 kHz, AC3 Dolby Digital, 3/2 (L,C,R,l,r) + LFE ch, ~448 kbps avg
MediaInfo

Код: Выделить всё

Complete name               : D:\Раздача\Закат цивилизации (2018) WEB-DLRip-AVC_ivanes20031987.mkv
Format                      : Matroska
Format version              : Version 2
File size                   : 1.44 GiB
Duration                    : 1 h 34 min
Overall bit rate            : 2 179 kb/s
Movie name                  : Закат цивилизации (2018) WEB-DLRip-AVC_ivanes20031987
Encoded date                : UTC 2018-08-03 21:34:49
Writing application         : mkvmerge v4.4.0 ('Die Wiederkehr') сборка от Jan  3 2011 21:40:45
Writing library             : libebml v1.0.0 + libmatroska v1.0.0
Cover                       : Yes
Attachments                 : cover.png

Video
ID                          : 1
Format                      : AVC
Format/Info                 : Advanced Video Codec
Format profile              : High@L4.1
Format settings, CABAC      : Yes
Format settings, RefFrames  : 10 frames
Codec ID                    : V_MPEG4/ISO/AVC
Duration                    : 1 h 34 min
Bit rate                    : 1 495 kb/s
Width                       : 958 pixels
Height                      : 400 pixels
Display aspect ratio        : 2.40:1
Frame rate mode             : Constant
Frame rate                  : 23.976 (24000/1001) FPS
Color space                 : YUV
Chroma subsampling          : 4:2:0
Bit depth                   : 8 bits
Scan type                   : Progressive
Bits/(Pixel*Frame)          : 0.163
Stream size                 : 1 015 MiB (69%)
Title                       : Rip by ivanes20031987
Writing library             : x264 core 155 r2901 7d0ff22
Encoding settings           : cabac=1 / ref=10 / deblock=1:-3:-2 / analyse=0x3:0x113 / me=umh / subme=10 / psy=1 / psy_rd=1.00:0.00 / mixed_ref=1 / me_range=32 / chroma_me=1 / trellis=2 / 8x8dct=1 / cqm=0 / deadzone=21,11 / fast_pskip=0 / chroma_qp_offset=-2 / threads=12 / lookahead_threads=3 / sliced_threads=0 / nr=0 / decimate=1 / interlaced=0 / bluray_compat=0 / constrained_intra=0 / bframes=12 / b_pyramid=2 / b_adapt=2 / b_bias=0 / direct=1 / weightb=1 / open_gop=0 / weightp=2 / keyint=240 / keyint_min=23 / scenecut=40 / intra_refresh=0 / rc_lookahead=60 / rc=crf / mbtree=0 / crf=17.3 / qcomp=0.60 / qpmin=0 / qpmax=69 / qpstep=4 / vbv_maxrate=50000 / vbv_bufsize=62500 / crf_max=0.0 / nal_hrd=none / filler=0 / ip_ratio=1.40 / pb_ratio=1.30 / aq=1:1.00
Default                     : Yes
Forced                      : No

Audio #1
ID                          : 2
Format                      : AC-3
Format/Info                 : Audio Coding 3
Format settings, Endianness : Big
Codec ID                    : A_AC3
Duration                    : 1 h 34 min
Bit rate mode               : Constant
Bit rate                    : 192 kb/s
Channel(s)                  : 2 channels
Channel positions           : Front: L R
Sampling rate               : 48.0 kHz
Frame rate                  : 31.250 FPS (1536 SPF)
Bit depth                   : 16 bits
Compression mode            : Lossy
Stream size                 : 130 MiB (9%)
Title                       : MuzOboz
Language                    : Russian
Service kind                : Complete Main
Default                     : Yes
Forced                      : No

Audio #2
ID                          : 3
Format                      : AC-3
Format/Info                 : Audio Coding 3
Format settings, Endianness : Big
Codec ID                    : A_AC3
Duration                    : 1 h 34 min
Bit rate mode               : Constant
Bit rate                    : 448 kb/s
Channel(s)                  : 6 channels
Channel positions           : Front: L C R, Side: L R, LFE
Sampling rate               : 48.0 kHz
Frame rate                  : 31.250 FPS (1536 SPF)
Bit depth                   : 16 bits
Compression mode            : Lossy
Stream size                 : 304 MiB (21%)
Title                       : Original
Language                    : English
Service kind                : Complete Main
Default                     : No
Forced                      : No

Text #1
ID                          : 4
Format                      : UTF-8
Codec ID                    : S_TEXT/UTF8
Codec ID/Info               : UTF-8 Plain Text
Title                       : Forced
Language                    : Russian
Default                     : Yes
Forced                      : No

Text #2
ID                          : 5
Format                      : UTF-8
Codec ID                    : S_TEXT/UTF8
Codec ID/Info               : UTF-8 Plain Text
Title                       : Full
Language                    : Russian
Default                     : No
Forced                      : No

Text #3
ID                          : 6
Format                      : UTF-8
Codec ID                    : S_TEXT/UTF8
Codec ID/Info               : UTF-8 Plain Text
Title                       : Full
Language                    : English
Default                     : No
Forced                      : No

x264

Код: Выделить всё

x264 [info]: frame I:953   Avg QP:12.45  size: 40265
x264 [info]: frame P:29726 Avg QP:14.08  size: 18091
x264 [info]: frame B:105785 Avg QP:16.70  size:  4874
x264 [info]: consecutive B-frames:  2.5%  3.5%  8.4% 17.3% 21.0% 23.8%  6.8% 10.6%  4.1%  0.6%  0.2%  0.3%  1.0%
x264 [info]: mb I  I16..4: 12.6% 71.0% 16.4%
x264 [info]: mb P  I16..4:  4.3% 16.7%  2.3%  P16..4: 32.6% 24.5% 12.9%  0.0%  0.0%    skip: 6.7%
x264 [info]: mb B  I16..4:  0.5%  0.9%  0.1%  B16..8: 35.7% 13.1%  3.3%  direct: 5.2%  skip:41.3%  L0:43.7% L1:45.3% BI:11.0%
x264 [info]: 8x8 transform intra:69.7% inter:58.9%
x264 [info]: coded y,uvDC,uvAC intra: 72.7% 85.0% 71.9% inter: 18.2% 18.3% 6.7%
x264 [info]: i16 v,h,dc,p: 61%  9%  7% 23%
x264 [info]: i8 v,h,dc,ddl,ddr,vr,hd,vl,hu: 11%  8% 13%  9% 12% 12% 11% 11% 13%
x264 [info]: i4 v,h,dc,ddl,ddr,vr,hd,vl,hu: 11%  7%  7% 11% 15% 13% 12% 11% 13%
x264 [info]: i8c dc,h,v,p: 53% 19% 16% 12%
x264 [info]: Weighted P-Frames: Y:7.2% UV:4.5%
x264 [info]: ref P L0: 50.9%  8.0% 17.0%  6.6%  5.7%  3.8%  3.1%  1.7%  1.6%  1.4%  0.2%  0.0%
x264 [info]: ref B L0: 77.2% 10.9%  4.9%  2.4%  1.6%  1.3%  1.0%  0.5%  0.2%
x264 [info]: ref B L1: 95.3%  4.7%
x264 [info]: kb/s:1534.51
Скриншоты
У вас нет необходимых прав для просмотра вложений в этом сообщении.

Ответить

Кто сейчас на конференции

Сейчас этот форум просматривают: нет зарегистрированных пользователей и 1 гость