Я заберу твои деньги / Blood Money (2017) BDRip

Раздел для видео роликов, фильмов, мультфильмов... в общем для любого видео / Section for videos, movies, cartoons... in General for any video
Торрент Сидеров Личеров Размер
YA.zaberu.tvoi.den'gi.2017.D.BDRip.avi.torrent
3 1 1.42 ГБ

Автор темы
K15
Администратор
Сообщения: 96
Зарегистрирован: 11 июн 2018, 14:17
Репутация: 2
Благодарил (а): 1 раз
Поблагодарили: 3 раза
United States of America

Я заберу твои деньги / Blood Money (2017) BDRip

#1

Сообщение K15 » 13 фев 2019, 18:09

Производство: США
Жанр: Триллер, Драма, Криминал

Режиссер: Лаки МакКи
Актеры: Джон Кьюсак, Эллар Колтрейн, Уилла Фицджералд, Джейкоб Артист, Нед Беллами, Антонио Джей Белл, Джоанна МакГинли

Описание:
Находчивый бизнесмен Миллер решает начать новую жизнь на украденные у клиента деньги. Всё шло по плану, пока, по воле случая, деньги не пропадают в лесной глуши и попадают в руки к трём друзьям, путешествующим в этих местах. Миллер не остановится ни перед чем, чтобы вернуть то, что ему принадлежит.

4.5/10
Возраст: 18+ (зрителям, достигшим 18 лет. запрещено для детей)
Рейтинг MPAA: R (лицам до 17 лет обязательно присутствие взрослого)
Дата мировой премьеры: 13 октября 2017
Дата российской премьеры: 26 апреля 2018, «Люксор»


Продолжительность: 01:25:27
Качество видео: BDRip
Перевод: Дублированный (iTunes)
Субтитры: Отсутствуют

Видео: Xvid, 720х304, ~1990 kbps
Аудио: AC3, 6 ch, 384 kbps


Общее
Полное имя : D:Торренты\Я.заберу.твои.деньги.2017.D.BDRip.avi
Формат : AVI
Формат/Информация : Audio Video Interleave
Размер файла : 1,42 Гбайт
Продолжительность : 1 ч. 25 м.
Общий поток : 2383 Кбит/сек
Программа кодирования : VirtualDubMod 1.5.10.2 (build 2540/release)
Библиотека кодирования : VirtualDubMod build 2540/release

Видео
Идентификатор : 0
Формат : MPEG-4 Visual
Профиль формата : Advanced Simple@L5
Настройки формата : BVOP1 / Custom Matrix
Параметр BVOP формата : 1
Параметр QPel формата : Нет
Параметр GMC формата : Без точки перехода
Параметр матрицы формата : Выборочная
Идентификатор кодека : XVID
Идентификатор кодека/Подсказка : XviD
Продолжительность : 1 ч. 25 м.
Битрейт : 1990 Кбит/сек
Ширина : 720 пикселей
Высота : 304 пикселя
Соотношение сторон : 2,35:1
Частота кадров : 23,976 (24000/1001) кадра/сек
Цветовое пространство : YUV
Субдискретизация насыщенности : 4:2:0
Битовая глубина : 8 бит
Тип развёртки : Прогрессивная
Метод сжатия : С потерями
Бит/(Пиксели*Кадры) : 0.379
Размер потока : 1,19 Гбайт (83%)
Библиотека кодирования : XviD 73

Аудио
Идентификатор : 1
Формат : AC-3
Формат/Информация : Audio Coding 3
Идентификатор кодека : 2000
Продолжительность : 1 ч. 25 м.
Вид битрейта : Постоянный
Битрейт : 384 Кбит/сек
Каналы : 6 каналов
Расположение каналов : Front: L C R, Side: L R, LFE
Частота : 48,0 КГц
Частота кадров : 31,250 кадров/сек (1536 SPF)
Битовая глубина : 16 бит
Метод сжатия : С потерями
Размер потока : 235 Мбайт (16%)
Выравнивание : Разделение по промежуткам
Продолжительность промежутка : 42 мс. (1,00 видеокадр)
Время предзагрузки промежутка : 500 мс.
ServiceKind/String : Complete Main
У вас нет необходимых прав для просмотра вложений в этом сообщении.

Ответить Вложения 1

Кто сейчас на конференции

Сейчас этот форум просматривают: Google [Bot] и 0 гостей