Страна призраков / Ghostland (2018) WEB-DLRip

Раздел для видео роликов, фильмов, мультфильмов... в общем для любого видео / Section for videos, movies, cartoons... in General for any video
Торрент Сидеров Личеров Размер
Ghostland_2018_WEB-DLRip_Dub.avi.torrent
10 1 1.46 ГБ

Автор темы
K15
Администратор
Сообщения: 96
Зарегистрирован: 11 июн 2018, 14:17
Репутация: 2
Благодарил (а): 1 раз
Поблагодарили: 3 раза
United States of America

Страна призраков / Ghostland (2018) WEB-DLRip

#1

Сообщение K15 » 13 фев 2019, 18:11

Производство: Франция, Канада | Inferno Pictures Inc., 5656 Films, Mars Films
Жанр: Ужасы

Режиссер: Паскаль Ложье
Актеры: Кристал Рид, Анастасия Филлипс, Эмилия Джонс, Тейлор Хиксон, Милен Фармер, Роб Арчер, Анджела Эшер, Эрик Атхавале, Тони Брэга, Паоло Брайант

Описание:
Бэт возвращается в родные места, где много лет назад с её семьёй произошла страшная трагедия. В старом особняке её ждут мать и сестра, помешанная на призраках, чья одержимость злыми духами - не что иное, как отголосок ужасного инцидента, превратившего жизнь в параноидальный кошмар. В доме начинают происходить странные события, объяснить которые Бэт не в силах...

6.6/10
Дата мировой премьеры: 3 февраля 2018
Дата российской премьеры: 15 марта 2018, «Каскад»


Продолжительность: 01:30:58
Качество видео: WEB-DLRip
Перевод: Дублированный
Субтитры: Отсутствуют

Видео: XviD, 720x304 (2.35:1), ~1905 kbps, 24.00 fps
Аудио: AC3, 6 ch, 48.0 kHz, 384 kbps cbr

General
Complete name : D:\Ghostland_2018_WEB-DLRip_Dub.avi
Format : AVI
Format/Info : Audio Video Interleave
File size : 1.46 GiB
Duration : 1 h 30 min
Overall bit rate : 2 298 kb/s
Writing application : VirtualDubMod 1.5.10.2 (build 2540/release)
Writing library : VirtualDubMod build 2540/release

Video
ID : 0
Format : MPEG-4 Visual
Format profile : Advanced Simple@L5
Format settings, BVOP : 1
Format settings, QPel : No
Format settings, GMC : No warppoints
Format settings, Matrix : Custom
Codec ID : XVID
Codec ID/Hint : XviD
Duration : 1 h 30 min
Bit rate : 1 905 kb/s
Width : 720 pixels
Height : 304 pixels
Display aspect ratio : 2.35:1
Frame rate : 24.000 FPS
Color space : YUV
Chroma subsampling : 4:2:0
Bit depth : 8 bits
Scan type : Progressive
Compression mode : Lossy
Bits/(Pixel*Frame) : 0.363
Stream size : 1.21 GiB (83%)
Writing library : XviD 73

Audio
ID : 1
Format : AC-3
Format/Info : Audio Coding 3
Format settings, Endianness : Big
Codec ID : 2000
Duration : 1 h 30 min
Bit rate mode : Constant
Bit rate : 384 kb/s
Channel(s) : 6 channels
Channel positions : Front: L C R, Side: L R, LFE
Sampling rate : 48.0 kHz
Frame rate : 31.250 FPS (1536 spf)
Bit depth : 16 bits
Compression mode : Lossy
Stream size : 250 MiB (17%)
Alignment : Split accross interleaves
Interleave, duration : 42 ms (1.00 video frame)
Interleave, preload duratio : 500 ms
Service kind : Complete Main
У вас нет необходимых прав для просмотра вложений в этом сообщении.

Ответить Вложения 1

Кто сейчас на конференции

Сейчас этот форум просматривают: нет зарегистрированных пользователей и 1 гость