Кладбище домашних животных / Pet Sematary [Ужасы, фэнтези, триллер, 1989] HDRip-AVC, Avo

Раздел для видео роликов, фильмов, мультфильмов... в общем для любого видео / Section for videos, movies, cartoons... in General for any video
Торрент Сидеров Личеров Размер
torrent_649081.torrent
3 0 2.13 ГБ

Автор темы
salma3
Супермодератор
Сообщения: 92
Зарегистрирован: 20 авг 2018, 11:57
Репутация: 0
Russia

Кладбище домашних животных / Pet Sematary [Ужасы, фэнтези, триллер, 1989] HDRip-AVC, Avo

#1

Сообщение salma3 » 24 авг 2018, 10:43

Год выхода: 1989
Жанр: Ужасы, фэнтези, триллер
Режиссер: Мэри Ламберт

В ролях: Дэйл Мидкифф, Фред Гуинн, Дениз Кросби, Брэд Гринквист, Майкл Ломбард, Мико Хьюз, Блэйз Бердаль, Сьюзан Бломмарт, Мара Кларк, Кави Раз

О фильме:
Доктор Луис Крид переезжает в маленький городок, где его семью ждет большой дом, а самого Луиса - скромная должность лечащего врача местного колледжа. Новая, просторная обитель четы Кридов расположена на краю густого, величественного леса. А в самом лесу - маленькое и мрачное кладбище, где местные жители хоронят своих домашних животных.
Несчастье приходит и в дом Кридов: кот Черч, домашний любимец, по нелепой случайности попадает под колеса грузовика. Гибель Черча повергает семью доктора в шок, и Луис решается на отчаянный шаг. Он хоронит кота на древнем, заброшенном индейском кладбище, обладающем, по легенде, таинственной воскрешающей силой. И однажды ночью погибший кот возвращается к хозяевам...



Страна: США
Продолжительность: 01:42:46
Перевод: Авторский Одноголосый закадровый (Ю.Сербин)

Файл
Кодек: x.264
Качество: HDRip-AVC
Видео: h264 / 2580 kbps / 1024x576 / 23.976 fps
Звук: 48 kHz / 384 kbps

Релиз от: Alukard14
Развернутьlog
x264 [info]: frame I:1659 Avg QP:17.70 size: 78574
x264 [info]: frame P:25571 Avg QP:20.78 size: 30239
x264 [info]: frame B:120613 Avg QP:23.32 size: 8994
x264 [info]: consecutive B-frames: 4.4% 0.3% 0.4% 0.6% 0.7% 0.8% 92.7%
x264 [info]: mb I I16..4: 5.2% 83.8% 11.0%
x264 [info]: mb P I16..4: 0.2% 6.2% 0.7% P16..4: 34.2% 42.6% 14.2% 0.0% 0.0% skip: 1.9%
x264 [info]: mb B I16..4: 0.0% 0.6% 0.1% B16..8: 41.1% 19.2% 2.9% direct: 4.6% skip:31.5% L0:43.8% L1:46.9% BI: 9.4%
x264 [info]: 8x8 transform intra:86.4% inter:59.7%
x264 [info]: direct mvs spatial:99.2% temporal:0.8%
x264 [info]: coded y,uvDC,uvAC intra: 94.8% 71.7% 36.5% inter: 28.1% 14.2% 2.5%
x264 [info]: i16 v,h,dc,p: 29% 18% 8% 45%
x264 [info]: i8 v,h,dc,ddl,ddr,vr,hd,vl,hu: 7% 6% 6% 12% 17% 14% 14% 12% 12%
x264 [info]: i4 v,h,dc,ddl,ddr,vr,hd,vl,hu: 8% 6% 4% 10% 17% 16% 14% 12% 13%
x264 [info]: i8c dc,h,v,p: 36% 29% 19% 17%
x264 [info]: Weighted P-Frames: Y:4.9% UV:1.2%
x264 [info]: ref P L0: 43.0% 10.5% 20.5% 6.6% 6.0% 3.6% 3.6% 1.6% 1.7% 1.2% 1.4% 0.3% 0.0%
x264 [info]: ref B L0: 75.4% 11.8% 5.0% 2.6% 1.7% 1.4% 1.0% 0.6% 0.3% 0.1%
x264 [info]: ref B L1: 91.4% 8.6%
x264 [info]: kb/s:2579.72
РазвернутьMediaInfo
Общее
Уникальный идентификатор : 222492921849341270975516958588276228292 (0xA76293FBC3F3070EB384D1614966C0C4)
Полное имя : E:TestRipPet.Sematary.by.Alukard14.mkv
Формат : Matroska
Версия формата : Version 2
Размер файла : 2,13 Гбайт
Продолжительность : 1 ч. 42 м.
Общий поток : 2965 Кбит/сек
Дата кодирования : UTC 2018-08-23 14:57:35
Программа кодирования : mkvmerge v4.1.1 ('Bouncin' Back') сборка от Jul 3 2010 22:54:08
Библиотека кодирования : libebml v1.0.0 + libmatroska v1.0.0

Видео
Идентификатор : 1
Формат : AVC
Формат/Информация : Advanced Video Codec
Профиль формата : High@L4.1
Настройки формата : CABAC / 11 Ref Frames
Параметр CABAC формата : Да
Параметр RefFrames формата : 11 кадров
Идентификатор кодека : V_MPEG4/ISO/AVC
Продолжительность : 1 ч. 42 м.
Битрейт : 2580 Кбит/сек
Ширина : 1024 пикселя
Высота : 576 пикселей
Соотношение сторон : 16:9
Режим частоты кадров : Постоянный
Частота кадров : 23,976 кадра/сек
Цветовое пространство : YUV
Субдискретизация насыщенности : 4:2:0
Битовая глубина : 8 бит
Тип развёртки : Прогрессивная
Бит/(Пиксели*Кадры) : 0.182
Размер потока : 1,81 Гбайт (85%)
Библиотека кодирования : x264 core 148 r2638 7599210
Настройки программы : cabac=1 / ref=11 / deblock=1:-3:-3 / analyse=0x3:0x113 / me=umh / subme=11 / psy=1 / psy_rd=1.00:0.00 / mixed_ref=1 / me_range=48 / chroma_me=1 / trellis=2 / 8x8dct=1 / cqm=0 / deadzone=21,11 / fast_pskip=0 / chroma_qp_offset=-2 / threads=9 / lookahead_threads=1 / sliced_threads=0 / nr=0 / decimate=0 / interlaced=0 / bluray_compat=0 / constrained_intra=0 / bframes=6 / b_pyramid=2 / b_adapt=0 / b_bias=0 / direct=3 / weightb=1 / open_gop=0 / weightp=2 / keyint=240 / keyint_min=24 / scenecut=40 / intra_refresh=0 / rc_lookahead=40 / rc=2pass / mbtree=1 / bitrate=2580 / ratetol=1.0 / qcomp=0.60 / qpmin=0 / qpmax=69 / qpstep=2 / cplxblur=20.0 / qblur=0.5 / vbv_maxrate=14000 / vbv_bufsize=14000 / nal_hrd=none / filler=0 / ip_ratio=1.40 / aq=1:1.00
Default : Да
Forced : Нет

Аудио
Идентификатор : 2
Формат : AC-3
Формат/Информация : Audio Coding 3
Режим смешивания : Header stripping
Идентификатор кодека : A_AC3
Продолжительность : 1 ч. 42 м.
Вид битрейта : Постоянный
Битрейт : 384 Кбит/сек
Каналы : 6 каналов
Расположение каналов : Front: L C R, Side: L R, LFE
Частота : 48,0 КГц
Частота кадров : 31,250 кадров/сек (1536 SPF)
Битовая глубина : 16 бит
Метод сжатия : С потерями
Размер потока : 282 Мбайт (13%)
Default : Да
Forced : Нет
РазвернутьСкриншоты
У вас нет необходимых прав для просмотра вложений в этом сообщении.

Ответить Вложения 1

Кто сейчас на конференции

Сейчас этот форум просматривают: нет зарегистрированных пользователей и 0 гостей