Смертоносная стая / Vampire Bats [Ужасы, триллер, 2005] WEB-DL 1080p, Mvo

Раздел для видео роликов, фильмов, мультфильмов... в общем для любого видео / Section for videos, movies, cartoons... in General for any video
Торрент Сидеров Личеров Размер
torrent_649126.torrent
21 17 9.3 ГБ

Автор темы
salma3
Супермодератор
Сообщения: 92
Зарегистрирован: 20 авг 2018, 11:57
Репутация: 0
Russia

Смертоносная стая / Vampire Bats [Ужасы, триллер, 2005] WEB-DL 1080p, Mvo

#1

Сообщение salma3 » 24 авг 2018, 10:44

Год выпуска: 2005
Выпущено: США
Жанр: Ужасы, триллер
Режиссер: Эрик Бросс

В ролях: Люси Лоулесс, Дилан Нил, Лайам Вейт, Тимоти Боттомс, Крэйг Фергюсон, Бретт Батлер, Тони Плана, Джессика Строуп, Арни Пантойя, Брэндон Родригес

О фильме: Мирная жизнь профессора колледжа Мэдди Риердон и ее мужа Драйера сильно осложняется, когда один из ее студентов найден мертвым со странными укусами по всему телу и полностью обескровленным. Постепенно она выясняет, что студента убила стая агрессивных летучих мышей, подвергнутых генетической мутации в результате токсичных отходов. Тем временем, летучие бестии начинают с жадностью пожирать горожан, и, несколько студентов решаются присоединиться к расследованию Риердон. Но смертельная опасность подкрадывается к ним совсем с другой стороны. Что же еще они раскопали?

Продолжительность: 01:29:08
Перевод: Профессиональный многоголосый
Субтитры: Английские
Навигация по главам: Есть

Файл
Качество: WEB-DL 1080p
Видео: MPEG-4 AVC, 13,6 Мбит/сек, 1920x1080, 23,976 кадра/сек
Аудио #1: AC3, 6 ch, 448 Кбит/сек | Русский, профессиональный (многоголосый закадровый)
Аудио #2: EAC3, 6 ch, 640 Кбит/сек | Английский, оригинал


РазвернутьСкриншоты
РазвернутьИнфо-файл
Общее
Уникальный идентификатор : 186813307050982119936168605845772054560 (0x8C8AEF281F003BE7A3EAEDAFC04C3020)
Полное имя : Смертоносная.стая.2005.WEB-DL.1080p.mkv
Формат : Matroska
Версия формата : Version 2
Размер файла : 9,30 Гбайт
Продолжительность : 1 ч. 29 м.
Общий поток : 14,9 Мбит/сек
Дата кодирования : UTC 2018-08-22 20:43:18
Программа кодирования : mkvmerge v5.8.0 ('No Sleep / Pillow') built on Sep 2 2012 15:37:04
Библиотека кодирования : libebml v1.2.3 + libmatroska v1.3.0

Видео
Идентификатор : 1
Формат : AVC
Формат/Информация : Advanced Video Codec
Профиль формата : High@L4
Настройки формата : CABAC / 4 Ref Frames
Параметр CABAC формата : Да
Параметр RefFrames формата : 4 кадра
Идентификатор кодека : V_MPEG4/ISO/AVC
Продолжительность : 1 ч. 29 м.
Битрейт : 13,6 Мбит/сек
Ширина : 1920 пикселей
Высота : 1080 пикселей
Соотношение сторон : 16:9
Режим частоты кадров : Постоянный
Частота кадров : 23,976 (24000/1001) кадра/сек
Цветовое пространство : YUV
Субдискретизация насыщенности : 4:2:0
Битовая глубина : 8 бит
Тип развёртки : Прогрессивная
Бит/(Пиксели*Кадры) : 0.273
Размер потока : 8,44 Гбайт (91%)
Язык : English
По умолчанию : Да
Принудительно : Нет
Цветовой диапазон : Limited
Основные цвета : BT.709
Характеристики трансфера : BT.709
Коэффициенты матрицы : BT.709

Аудио #1
Идентификатор : 2
Формат : AC-3
Формат/Информация : Audio Coding 3
Идентификатор кодека : A_AC3
Продолжительность : 1 ч. 29 м.
Вид битрейта : Постоянный
Битрейт : 448 Кбит/сек
Каналы : 6 каналов
Расположение каналов : Front: L C R, Side: L R, LFE
Частота : 48,0 КГц
Частота кадров : 31,250 кадров/сек (1536 SPF)
Битовая глубина : 16 бит
Метод сжатия : С потерями
Размер потока : 286 Мбайт (3%)
Заголовок : MVO
Язык : Russian
По умолчанию : Да
Принудительно : Нет

Аудио #2
Идентификатор : 3
Формат : E-AC-3
Формат/Информация : Enhanced Audio Coding 3
Идентификатор кодека : A_EAC3
Продолжительность : 1 ч. 29 м.
Вид битрейта : Постоянный
Битрейт : 640 Кбит/сек
Каналы : 6 каналов
Расположение каналов : Front: L C R, Side: L R, LFE
Частота : 48,0 КГц
Частота кадров : 187,500 кадров/сек (256 SPF)
Метод сжатия : С потерями
Размер потока : 408 Мбайт (4%)
Заголовок : Original
Язык : English
По умолчанию : Нет
Принудительно : Нет

Текст #1
Идентификатор : 4
Формат : UTF-8
Идентификатор кодека : S_TEXT/UTF8
Идентификатор кодека/Информация : UTF-8 Plain Text
Язык : English
По умолчанию : Нет
Принудительно : Нет

Текст #2
Идентификатор : 5
Формат : UTF-8
Идентификатор кодека : S_TEXT/UTF8
Идентификатор кодека/Информация : UTF-8 Plain Text
Заголовок : SDH
Язык : English
По умолчанию : Нет
Принудительно : Нет

Меню
00:00:02.016 : en:Chapter 01
00:04:31.615 : en:Chapter 02
00:06:24.228 : en:Chapter 03
00:09:16.191 : en:Chapter 04
00:09:25.033 : en:Chapter 05
00:09:49.433 : en:Chapter 06
00:11:49.553 : en:Chapter 07
00:14:25.959 : en:Chapter 08
00:17:41.605 : en:Chapter 09
00:21:58.112 : en:Chapter 10
00:24:29.513 : en:Chapter 11
00:26:52.155 : en:Chapter 12
00:30:21.629 : en:Chapter 13
00:33:04.208 : en:Chapter 14
00:36:41.467 : en:Chapter 15
00:43:02.816 : en:Chapter 16
00:47:04.831 : en:Chapter 17
00:49:11.833 : en:Chapter 18
00:52:24.526 : en:Chapter 19
00:56:05.019 : en:Chapter 20
00:58:38.923 : en:Chapter 21
01:00:51.555 : en:Chapter 22
01:03:54.238 : en:Chapter 23
01:07:30.079 : en:Chapter 24
01:11:05.919 : en:Chapter 25
01:12:42.891 : en:Chapter 26
01:14:21.114 : en:Chapter 27
01:16:14.882 : en:Chapter 28
01:21:21.438 : en:Chapter 29
01:27:27.429 : en:Chapter 30
РазвернутьДополнительная информация
• Исходник видео WEB-DL Amazon.
Сборка:
У вас нет необходимых прав для просмотра вложений в этом сообщении.

Ответить Вложения 1

Кто сейчас на конференции

Сейчас этот форум просматривают: нет зарегистрированных пользователей и 0 гостей