Потерянная пуля / Balle perdue / Lost Bullet [Боевик, триллер, криминал, 2020] WEB-DLRip-AVC, Mvo

Торрент [ Статус: Проверен ] Скачать Сидеров Личеров Размер
[rutracker.in] [rutor.is]Poterjannaja_pulja.2020.WEB-DLRip-AVC.-...
18 0 742.16 МБ
K15
Администратор
Сообщения: 84
Зарегистрирован: 16 сен 2019, 20:47

Потерянная пуля / Balle perdue / Lost Bullet [Боевик, триллер, криминал, 2020] WEB-DLRip-AVC, Mvo

Сообщение K15 » 02 янв 2021, 12:01

Информация о фильме
Название: Потерянная пуля
Оригинальное название: Balle perdue / Lost Bullet
Год выхода: 2020
Жанр: Боевик, триллер, криминал
Режиссер: Гийом Пьерре
В ролях: Альбан Ленуар, Николя Дювошель, Рамзи Бедиа, Стефи Сельма, Род Парадо, Себастьян Лаланн, Патрик Медиони, Александр Филип, Стивен Скардиккьо, Дэмиен ЛеКонте, Тибо Эврар, Энни Серра, Паскаль Арбийо, Роберт Хоспьян

О фильме: Одаренного механика обвиняют в убийстве, которого он не совершал. Единственным доказательством его невиновности является пуля с места преступления, застрявшая в пропавшей машине.



Страна: Франция
Студия: Inoxy Films, Nolita TV, Versus Production
Продолжительность: 01:33:06
Перевод: Любительский (многоголосый, закадровый) @MUZOBOZ@
Субтитры: Русские (Full), английские

Файл
Формат: Matroska
Качество: WEB-DLRip-AVC
Видео: 768x320 at 23.976 fps, x264@L4.1, ~1054 kbps, 0.172 bpp
Аудио: AAC, 2 ch, ~64 kbps - | Русский | -
Формат субтитров: softsub (SRT)
► Без Рекламы!
x264 [info]: frame I:997 Avg QP:17.34 size: 25986
x264 [info]: frame P:34867 Avg QP:19.57 size: 10952
x264 [info]: frame B:103794 Avg QP:20.58 size: 3034

General
Format : Matroska
Format version : Version 4
File size : 742 MiB
Duration : 1 h 33 min
Overall bit rate : 1 114 kb/s
Movie name : Потерянная пуля.(2020).WEB-DLRip-AVC.[-=DoMiNo=-]
Encoded date : UTC 2020-06-22 20:08:05
Writing application : mkvmerge v47.0.0 ('Black Flag') 64-bit
Writing library : libebml v1.3.10 + libmatroska v1.5.2
Cover : Yes
Attachments : cover.jpg / cover 2.jpg

Video
ID : 1
Format : AVC
Format/Info : Advanced Video Codec
Format profile : High@L4.1
Format settings : CABAC / 12 Ref Frames
Format settings, CABAC : Yes
Format settings, Reference : 12 frames
Codec ID : V_MPEG4/ISO/AVC
Duration : 1 h 33 min
Bit rate : 1 054 kb/s
Width : 768 pixels
Height : 320 pixels
Display aspect ratio : 2.40:1
Frame rate mode : Constant
Frame rate : 25.000 FPS
Color space : YUV
Chroma subsampling : 4:2:0
Bit depth : 8 bits
Scan type : Progressive
Bits/(Pixel*Frame) : 0.172
Stream size : 698 MiB (94%)
Title : -=DoMiNo=-
Writing library : x264 core 160 r3009 4c9b076
Encoding settings : cabac=1 / ref=12 / deblock=1:-3:-3 / analyse=0x3:0x133 / me=umh / subme=10 / psy=1 / psy_rd=1.00:0.15 / mixed_ref=1 / me_range=32 / chroma_me=1 / trellis=2 / 8x8dct=1 / cqm=0 / deadzone=21,11 / fast_pskip=0 / chroma_qp_offset=-3 / threads=6 / lookahead_threads=1 / sliced_threads=0 / nr=0 / decimate=0 / interlaced=0 / bluray_compat=0 / constrained_intra=0 / bframes=12 / b_pyramid=2 / b_adapt=2 / b_bias=0 / direct=3 / weightb=1 / open_gop=0 / weightp=2 / keyint=250 / keyint_min=25 / scenecut=40 / intra_refresh=0 / rc_lookahead=60 / rc=2pass / mbtree=0 / bitrate=1054 / ratetol=1.0 / qcomp=0.65 / qpmin=0 / qpmax=69 / qpstep=4 / cplxblur=20.0 / qblur=0.5 / vbv_maxrate=50000 / vbv_bufsize=62500 / nal_hrd=none / filler=0 / ip_ratio=1.40 / pb_ratio=1.30 / aq=3:1.00
Language : English
Default : Yes
Forced : No
Color range : Limited
Color primaries : BT.709
Transfer characteristics : BT.709
Matrix coefficients : BT.709

Audio
ID : 2
Format : AAC LC SBR
Format/Info : Advanced Audio Codec Low Complexity with Spectral Band Replication
Commercial name : HE-AAC
Format settings : Implicit
Codec ID : A_AAC-2
Duration : 1 h 33 min
Bit rate : 64.0 kb/s
Channel(s) : 2 channels
Channel layout : L R
Sampling rate : 48.0 kHz
Frame rate : 23.438 FPS (2048 SPF)
Compression mode : Lossy
Stream size : 42.6 MiB (6%)
Title : @MUZOBOZ@
Language : Russian
Default : Yes
Forced : No

Text #1
ID : 3
Format : UTF-8
Codec ID : S_TEXT/UTF8
Codec ID/Info : UTF-8 Plain Text
Duration : 1 h 25 min
Bit rate : 44 b/s
Count of elements : 669
Stream size : 27.6 KiB (0%)
Language : Russian
Default : No
Forced : No

Text #2
ID : 4
Format : UTF-8
Codec ID : S_TEXT/UTF8
Codec ID/Info : UTF-8 Plain Text
Duration : 1 h 25 min
Bit rate : 27 b/s
Count of elements : 668
Stream size : 17.3 KiB (0%)
Language : English
Default : No
Forced : No

Menu
00:00:00.000 : :Глава 01
00:05:30.000 : :Глава 02
00:11:00.000 : :Глава 03
00:16:30.000 : :Глава 04
00:22:00.000 : :Глава 05
00:27:30.000 : :Глава 06
00:33:00.000 : :Глава 07
00:38:30.000 : :Глава 08
00:44:00.000 : :Глава 09
00:49:30.000 : :Глава 10
00:55:00.000 : :Глава 11
01:00:30.000 : :Глава 12
01:06:00.000 : :Глава 13
01:11:30.000 : :Глава 14
01:17:00.000 : :Глава 15
01:22:30.000 : :Глава 16
01:28:00.000 : :Глава 17
У вас нет необходимых прав для просмотра вложений в этом сообщении.

KelvinWY

Hi

Сообщение KelvinWY » 30 янв 2021, 23:38

Thank you


Тема поднималась пользователем Anonymous 30 янв 2021, 23:38.

Ответить

Кто сейчас на конференции

Сейчас этот форум просматривают: нет зарегистрированных пользователей и 2 гостя