Сайлент Хилл 2 / Silent Hill: Revelation [Ужасы, триллер, детектив, 2012] HDRip-AVC, Dub [Open Matte]

Раздел для видео роликов, фильмов, мультфильмов... в общем для любого видео / Section for videos, movies, cartoons... in General for any video
Торрент Сидеров Личеров Размер
torrent_649551.torrent
35 9 1.93 ГБ

Автор темы
salma3
Супермодератор
Сообщения: 92
Зарегистрирован: 20 авг 2018, 11:57
Репутация: 0
Russia

Сайлент Хилл 2 / Silent Hill: Revelation [Ужасы, триллер, детектив, 2012] HDRip-AVC, Dub [Open Matte]

#1

Сообщение salma3 » 26 авг 2018, 10:24

Год выхода: 2012
Жанр: Ужасы, триллер, детектив
Режиссер: Майкл Дж. Бассетт

В ролях: Эделейд Клеменс, Кит Харингтон, Дебора Кара Ангер, Мартин Донован, Малкольм МакДауэлл, Кэрри-Энн Мосс, Шон Бин, Рада Митчелл, Роберто Кампанелла, Эрин Питт


Хизер терзается ночными кошмарами с одиннадцатилетнего возраста и вынуждена со своим отцом постоянно менять место жительства, скрываясь от таинственных сил. Накануне своего восемнадцатого дня рождения Хизер, вернувшись домой, обнаруживает, что её отец исчез. Единственное, что она нашла дома — нарисованный на стене оккультный символ с надписью «отправляйся в Сайлент Хилл».



Страна: США, Канада, Франция
Продолжительность: 01:34:30
Перевод: Дубляж

Файл
Кодек: H.264
Качество: HDRip-AVC от SuperMin
Видео: 1088x608 (16:9), 2467 kbps, 23.976 fps
Звук: Русский (AC-3, 6ch, 448 kbps)
Субтитры: Русские, английские
РазвернутьMI
x264 [info]: frame I:1157 Avg QP:18.00 size: 67671
x264 [info]: frame P:32012 Avg QP:19.75 size: 25520
x264 [info]: frame B:102782 Avg QP:22.43 size: 8305
x264 [info]: consecutive B-frames: 2.5% 3.0% 10.8% 29.4% 16.9% 33.3% 3.1% 1.0%
x264 [total]: encoded 135951 frames, 10.46 fps, 2467.38 kb/s

General
Unique ID : 231017890249437862612532982625142225253 (0xADCC6D606406216BBC18AEFD71DEB965)
Complete name : F:Сайлент Хилл-2 (Open Matte).mkv
Format : Matroska
Format version : Version 4 / Version 2
File size : 1.93 GiB
Duration : 1 h 34 min
Overall bit rate : 2 917 kb/s
Movie name : Сайлент Хилл 2 / Silent Hill: Revelation (2012) (Open Matte) - #LORDKILL#
Encoded date : UTC 2018-08-26 04:28:36
Writing application : mkvmerge v9.5.0 ('Quiet Fire') 64bit
Writing library : libebml v1.3.4 + libmatroska v1.4.5

Video
ID : 1
Format : AVC
Format/Info : Advanced Video Codec
Format profile : High@L4.1
Format settings, CABAC : Yes
Format settings, ReFrames : 9 frames
Codec ID : V_MPEG4/ISO/AVC
Duration : 1 h 34 min
Bit rate : 2 467 kb/s
Width : 1 088 pixels
Height : 608 pixels
Display aspect ratio : 16:9
Frame rate mode : Constant
Frame rate : 23.976 (24000/1001) FPS
Color space : YUV
Chroma subsampling : 4:2:0
Bit depth : 8 bits
Scan type : Progressive
Bits/(Pixel*Frame) : 0.156
Stream size : 1.63 GiB (85%)
Writing library : x264 core 146 r2538 121396c
Encoding settings : cabac=1 / ref=9 / deblock=1:0:0 / analyse=0x3:0x113 / me=umh / subme=11 / psy=1 / psy_rd=1.00:0.15 / mixed_ref=1 / me_range=32 / chroma_me=1 / trellis=2 / 8x8dct=1 / cqm=0 / deadzone=21,11 / fast_pskip=0 / chroma_qp_offset=-3 / threads=12 / lookahead_threads=2 / sliced_threads=0 / nr=0 / decimate=1 / interlaced=0 / bluray_compat=0 / constrained_intra=0 / bframes=7 / b_pyramid=2 / b_adapt=2 / b_bias=0 / direct=1 / weightb=1 / open_gop=0 / weightp=2 / keyint=240 / keyint_min=23 / scenecut=40 / intra_refresh=0 / rc=crf / mbtree=0 / crf=20.0 / qcomp=0.60 / qpmin=0 / qpmax=69 / qpstep=4 / ip_ratio=1.40 / pb_ratio=1.30 / aq=1:1.00
Default : Yes
Forced : No

Audio
ID : 2
Format : AC-3
Format/Info : Audio Coding 3
Mode extension : CM (complete main)
Format settings, Endianness : Big
Codec ID : A_AC3
Duration : 1 h 34 min
Bit rate mode : Constant
Bit rate : 448 kb/s
Channel(s) : 6 channels
Channel positions : Front: L C R, Side: L R, LFE
Sampling rate : 48.0 kHz
Frame rate : 31.250 FPS (1536 spf)
Bit depth : 16 bits
Compression mode : Lossy
Stream size : 303 MiB (15%)
Title : Дубляж
Language : Russian
Default : Yes
Forced : No

Text #1
ID : 3
Format : UTF-8
Codec ID : S_TEXT/UTF8
Codec ID/Info : UTF-8 Plain Text
Duration : 1 h 26 min
Bit rate : 57 b/s
Count of elements : 802
Stream size : 36.1 KiB (0%)
Title : Full
Language : Russian
Default : No
Forced : No

Text #2
ID : 4
Format : UTF-8
Codec ID : S_TEXT/UTF8
Codec ID/Info : UTF-8 Plain Text
Duration : 1 h 26 min
Bit rate : 38 b/s
Count of elements : 876
Stream size : 24.1 KiB (0%)
Title : SDH
Language : English
Default : No
Forced : No
РазвернутьСкриншоты
У вас нет необходимых прав для просмотра вложений в этом сообщении.

Ответить Вложения 1

Кто сейчас на конференции

Сейчас этот форум просматривают: нет зарегистрированных пользователей и 0 гостей