Красный воробей / Red Sparrow [2018, США, триллер, детектив, BDRip-AVC] Dub

Раздел для видео роликов, фильмов, мультфильмов... в общем для любого видео / Section for videos, movies, cartoons... in General for any video
Торрент Сидеров Личеров Размер
Красный воробей (Red Sparrow) [2018, США, триллер, детектив, BDR...
19 1 1.46 ГБ
Аватара пользователя

Автор темы
Evangelion
Супермодератор
Сообщения: 30
Зарегистрирован: 10 июл 2018, 23:15
Репутация: 0
Откуда: Горловка
Поблагодарили: 1 раз
Пол:
Ukraine

Красный воробей / Red Sparrow [2018, США, триллер, детектив, BDRip-AVC] Dub

#1

Сообщение Evangelion » 30 авг 2018, 18:20

Красный воробей / Red Sparrow
«Seductive. Deceptive. Deadly»

Страна: США
Жанр: триллер, детектив
Год выпуска: 2018
Продолжительность: 02:20:13

Перевод: Профессиональный (дублированный) Лицензия
Субтитры: нет
Оригинальная аудиодорожка: нет

Режиссер: Френсис Лоуренс / Francis Lawrence

В ролях: Дженнифер Лоуренс, Джоэл Эдгертон, Маттиас Шонартс, Шарлотта Рэмплинг, Мэри-Луиз Паркер, Киран Хайндс, Джоэли Ричардсон, Билл Кэмп, Джереми Айронс, Текла Рютен

Описание: После вынужденного окончания карьеры из-за профессиональной травмы Доминика Егорова и ее мать сталкиваются с мрачным и неопределенным будущим. Героиня соглашается стать рекрутом в Школе Воробьев, секретной службе, которая обучает уникальных молодых людей использовать свое тело и ум в качестве опаснейшего оружия. После долгого садистского обучения девушка превращается в самого опасного Воробья за всю историю секретной службы. Теперь бывшая балерина должна примирить в себе человека, которым она была, и силу, которой она овладела, со своей собственной жизнью и жизнью всех, кто ей дорог. В том числе, американского агента ЦРУ, пытающегося убедить ее, что он единственный человек, которому она может доверять.





Качество видео: BDRip-AVC / Red.Sparrow.2018.REMUX.1080p.BluRay.AVC.DTS-HD.MA.7.1-iFT
Формат видео: MKV

Видео: MPEG-4 AVC, 930x388 (2.40:1), 23.976 fps, ~1292 kbps avg, 0.149 bit/pixel
Аудио: 48 kHz, AC3 Dolby Digital, 2/0 (L,R) ch, ~192 kbps avg
РазвернутьMediaInfo

Код: Выделить всё

Complete name               : D:\Раздача\Красный воробей (2018) BDRip-AVC_ivanes20031987.mkv
Format                      : Matroska
Format version              : Version 2
File size                   : 1.46 GiB
Duration                    : 2 h 20 min
Overall bit rate            : 1 486 kb/s
Movie name                  : Красный воробей (2018) BDRip-AVC_ivanes20031987
Encoded date                : UTC 2018-05-13 10:26:33
Writing application         : mkvmerge v4.4.0 ('Die Wiederkehr') сборка от Jan  3 2011 21:40:45
Writing library             : libebml v1.0.0 + libmatroska v1.0.0
Cover                       : Yes
Attachments                 : cover.png

Video
ID                          : 1
Format                      : AVC
Format/Info                 : Advanced Video Codec
Format profile              : High@L4.1
Format settings, CABAC      : Yes
Format settings, RefFrames  : 14 frames
Codec ID                    : V_MPEG4/ISO/AVC
Duration                    : 2 h 20 min
Bit rate                    : 1 292 kb/s
Width                       : 930 pixels
Height                      : 388 pixels
Display aspect ratio        : 2.40:1
Frame rate mode             : Constant
Frame rate                  : 23.976 (24000/1001) FPS
Color space                 : YUV
Chroma subsampling          : 4:2:0
Bit depth                   : 8 bits
Scan type                   : Progressive
Bits/(Pixel*Frame)          : 0.149
Stream size                 : 1.24 GiB (85%)
Title                       : Rip by ivanes20031987
Writing library             : x264 core 155 r2901 7d0ff22
Encoding settings           : cabac=1 / ref=14 / deblock=1:-1:-1 / analyse=0x3:0x113 / me=umh / subme=10 / psy=1 / psy_rd=1.00:0.00 / mixed_ref=1 / me_range=32 / chroma_me=1 / trellis=2 / 8x8dct=1 / cqm=0 / deadzone=21,11 / fast_pskip=0 / chroma_qp_offset=-2 / threads=12 / lookahead_threads=3 / sliced_threads=0 / nr=0 / decimate=0 / interlaced=0 / bluray_compat=0 / constrained_intra=0 / bframes=14 / b_pyramid=2 / b_adapt=2 / b_bias=0 / direct=1 / weightb=1 / open_gop=0 / weightp=2 / keyint=240 / keyint_min=23 / scenecut=40 / intra_refresh=0 / rc_lookahead=60 / rc=2pass / mbtree=0 / bitrate=1292 / ratetol=1.0 / qcomp=0.60 / qpmin=0 / qpmax=69 / qpstep=4 / cplxblur=20.0 / qblur=0.5 / vbv_maxrate=50000 / vbv_bufsize=62500 / nal_hrd=none / filler=0 / ip_ratio=1.40 / pb_ratio=1.30 / aq=1:1.00
Default                     : Yes
Forced                      : No

Audio
ID                          : 2
Format                      : AC-3
Format/Info                 : Audio Coding 3
Format settings, Endianness : Big
Codec ID                    : A_AC3
Duration                    : 2 h 20 min
Bit rate mode               : Constant
Bit rate                    : 192 kb/s
Channel(s)                  : 2 channels
Channel positions           : Front: L R
Sampling rate               : 48.0 kHz
Frame rate                  : 31.250 FPS (1536 SPF)
Bit depth                   : 16 bits
Compression mode            : Lossy
Stream size                 : 193 MiB (13%)
Title                       : Лицензия
Language                    : Russian
Service kind                : Complete Main
Default                     : Yes
Forced                      : No

Развернутьx264

Код: Выделить всё

raw [info]: 930x388p 1:1 @ 24000/1001 fps (cfr)
x264 [info]: using SAR=1/1
x264 [info]: using cpu capabilities: MMX2 SSE2Fast SSSE3 SSE4.2
x264 [info]: profile High, level 4.1
x264 [info]: frame I:1669  Avg QP:12.42  size: 59788
x264 [info]: frame P:40383 Avg QP:15.63  size: 15968
x264 [info]: frame B:159664 Avg QP:16.49  size:  3843
x264 [info]: consecutive B-frames:  1.9%  3.6%  5.7% 10.3% 12.6% 46.5%  9.5%  3.7%  4.7%  0.1%  0.1%  0.1%  0.1%  0.2%  0.9%
x264 [info]: mb I  I16..4:  5.9% 72.7% 21
x264 [info]: mb P  I16..4:  0.5%  6.6%  1.8%  P16..4: 35.2% 30.3% 17.3%  0.0%  0.0%    skip: 8.4%
x264 [info]: mb B  I16..4:  0.0%  0.4%  0.2%  B16..8: 33.2% 14.8%  3.9%  direct: 3.1%  skip:44.3%  L0:44.4% L1:45.0% BI:10.7%
x264 [info]: 8x8 transform intra:72.4% inter:49.1%
x264 [info]: coded y,uvDC,uvAC intra: 87.0% 78.8% 60.2% inter: 18.1% 12.2% 6.0%
x264 [info]: i16 v,h,dc,p: 34% 21% 10% 36%
x264 [info]: i8 v,h,dc,ddl,ddr,vr,hd,vl,hu: 21% 13% 10%  7%  9% 11%  9% 10% 10%
x264 [info]: i4 v,h,dc,ddl,ddr,vr,hd,vl,hu: 30% 17%  4%  6%  9% 10%  8%  7%  8%
x264 [info]: i8c dc,h,v,p: 39% 28% 23% 10%
x264 [info]: Weighted P-Frames: Y:1.8% UV:0.9%
x264 [info]: ref P L0: 49.2%  8.3% 16.3%  6.0%  5.2%  3.4%  3.3%  1.5%  1.6%  1.2%  1.2%  0.9%  1.0%  0.8%  0.0%  0.0%
x264 [info]: ref B L0: 68.2% 12.2%  6.3%  3.3%  2.4%  2.1%  1.6%  1.0%  0.8%  0.8%  0.6%  0.4%  0.1%
x264 [info]: ref B L1: 93.5%  6.5%
x264 [info]: kb/s:1291.52
РазвернутьСкриншоты
У вас нет необходимых прав для просмотра вложений в этом сообщении.

Теги:

Ответить Вложения 1

Кто сейчас на конференции

Сейчас этот форум просматривают: нет зарегистрированных пользователей и 0 гостей